<?xml version="1.0" standalone="no"?>
<!DOCTYPE svg PUBLIC "-//W3C//DTD SVG 1.1//EN" "http://www.w3.org/Graphics/SVG/1.1/DTD/svg11.dtd" >
<svg xmlns="http://www.w3.org/2000/svg">
<defs>
  <font id="blueprint-icons-20" horiz-adv-x="444.44444444444446">
    <font-face font-family="blueprint-icons-20"
      units-per-em="400" ascent="400"
      descent="0" />
    <missing-glyph horiz-adv-x="0" />
    <glyph glyph-name="add-clip"
      unicode="&#xF101;"
      horiz-adv-x="400" d="M300 400C311.046 400 320 391.0457 320 380V320H380C391.046 320 400 311.0456 400 300C400 288.9544 391.046 280 380 280H320V220C320 208.9542 311.046 200 300 200C288.954 200 280 208.9542 280 220V280H220C208.954 280 200 288.9544 200 300C200 311.0456 208.954 320 220 320H280V380C280 391.0457 288.954 400 300 400zM20 320C8.9543 320 0 311.0456 0 300V220C0 208.9544 8.9543 200 20 200C31.0456 200 40 208.9544 40 220V280H100C111.0456 280 120 288.9544 120 300C120 311.0456 111.0456 320 100 320H20zM0 20C0 8.954 8.9543 0 20 0H100C111.0456 0 120 8.954 120 20C120 31.046 111.0456 40 100 40H40V100C40 111.046 31.0456 120 20 120C8.9543 120 0 111.046 0 100V20zM300 0L220 0C208.954 0 200 8.954 200 20C200 31.046 208.954 40 220 40L280 40V100C280 111.046 288.954 120 300 120C311.046 120 320 111.046 320 100V20C320 8.954 311.046 0 300 0zM160 100C193.137 100 220 126.862 220 160C220 193.138 193.137 220 160 220C126.863 220 100 193.138 100 160C100 126.862 126.863 100 160 100z" />
    <glyph glyph-name="add-column-left"
      unicode="&#xF102;"
      horiz-adv-x="400" d="M80 180H120V140C120 129 129 120 140 120S160 129 160 140V180H200C211 180 220 189 220 200C220 211 211 220 200 220H160V260C160 271 151 280 140 280S120 271 120 260V220H80C69 220 60 211 60 200C60 189 69 180 80 180zM380 400H20C9 400 0 391 0 380V20C0 9 9 0 20 0H380C391 0 400 9 400 20V380C400 391 391 400 380 400zM240 40H40V360H240V40zM360 40H260V360H360V40z" />
    <glyph glyph-name="add-column-right"
      unicode="&#xF103;"
      horiz-adv-x="400" d="M200 180H240V140C240 129 249 120 260 120S280 129 280 140V180H320C331 180 340 189 340 200C340 211 331 220 320 220H280V260C280 271 271 280 260 280S240 271 240 260V220H200C189 220 180 211 180 200C180 189 189 180 200 180zM380 400H20C9 400 0 391 0 380V20C0 9 9 0 20 0H380C391 0 400 9 400 20V380C400 391 391 400 380 400zM140 40H40V360H140V40zM360 40H160V360H360V40z" />
    <glyph glyph-name="add-location"
      unicode="&#xF104;"
      horiz-adv-x="400" d="M200 400C211.045694 400 220 391.045695 220 380C220 368.954305 211.045694 360 200 360C111.63444 360 40 288.36556 40 200C40 111.63444 111.63444 40 200 40C288.36556 40 360 111.63444 360 200C360 211.045695 368.954306 220 380 220C391.0456940000001 220 400 211.045695 400 200C400 89.54305 310.45695 0 200 0C89.54305 0 0 89.54305 0 200C0 310.45695 89.54305 400 200 400zM200 280C244.18278 280 280 244.18278 280 200C280 155.81722 244.18278 120 200 120C155.81722 120 120 155.81722 120 200C120 244.18278 155.81722 280 200 280zM320 400C332 400 340 392 340 380L340 380L340 340L380 340C392 340 400 332 400 320C400 308 392 300 380 300L380 300L340 300L340 260C340 248 332 240 320 240C308 240 300 248 300 260L300 260L300 300L260 300C248 300 240 308 240 320C240 330 248 340 260 340L260 340L300 340L300 380C300 392 308 400 320 400z" />
    <glyph glyph-name="add-row-bottom"
      unicode="&#xF105;"
      horiz-adv-x="400" d="M380 400H20C9 400 0 391 0 380V20C0 9 9 0 20 0H380C391 0 400 9 400 20V380C400 391 391 400 380 400zM360 40H40V240H360V40zM360 260H40V360H360V260zM140 120H180V80C180 69 189 60 200 60S220 69 220 80V120H260C271 120 280 129 280 140C280 151 271 160 260 160H220V200C220 211 211 220 200 220S180 211 180 200V160H140C129 160 120 151 120 140C120 129 129 120 140 120z" />
    <glyph glyph-name="add-row-top"
      unicode="&#xF106;"
      horiz-adv-x="400" d="M140 240H180V200C180 189 189 180 200 180S220 189 220 200V240H260C271 240 280 249 280 260C280 271 271 280 260 280H220V320C220 331 211 340 200 340S180 331 180 320V280H140C129 280 120 271 120 260C120 249 129 240 140 240zM380 400H20C9 400 0 391 0 380V20C0 9 9 0 20 0H380C391 0 400 9 400 20V380C400 391 391 400 380 400zM360 40H40V140H360V40zM360 160H40V360H360V160z" />
    <glyph glyph-name="add-to-artifact"
      unicode="&#xF107;"
      horiz-adv-x="400" d="M260 160H20C9 160 0 151 0 140C0 129 9 120 20 120H260C271 120 280 129 280 140C280 151 271 160 260 160zM260 80H20C9 80 0 71 0 60C0 49 9 40 20 40H260C271 40 280 49 280 60C280 71 271 80 260 80zM20 280H200C211 280 220 289 220 300C220 311 211 320 200 320H20C9 320 0 311 0 300C0 289 9 280 20 280zM260 240H20C9 240 0 231 0 220C0 209 9 200 20 200H260C271 200 280 209 280 220C280 231 271 240 260 240zM380 320H340V360C340 371 331 380 320 380S300 371 300 360V320H260C249 320 240 311 240 300C240 289 249 280 260 280H300V240C300 229 309 220 320 220S340 229 340 240V280H380C391 280 400 289 400 300C400 311 391 320 380 320z" />
    <glyph glyph-name="add-to-folder"
      unicode="&#xF108;"
      horiz-adv-x="400" d="M0.19990005 200L0.19990005 280L400 280L400 80C400 69 391.004498 60 380.009996 60L199.90005 60L199.90005 139.8C199.3073226 173.366448 172.6870804 200 139.730135 200L39.78011 200L0.19990005 200zM380.009996 340C391.004498 340 400 331 399.8001 320L399.8033680000001 300L0 300L0 360C0 371 8.99550224 380 19.990005 380L139.930035 380C145.5272364 380 150.5247376 377.8 154.1229386 374.2L188.305847 340L380.009996 340zM139.730135 160C150.7246376 160 159.72014 151 159.92004 139.8L159.92004 39.8C159.92004 28.8 150.9245378 19.8 139.930035 19.8C128.9355322 19.8 119.94003 28.8 119.94003 39.8L119.94003 91.6L34.1829086 5.8C30.5847076 2.2 25.5872064 0 19.990005 0C8.99550224 0 0 9 0 20C0 25.6 2.19890054 30.6 5.79710144 34.2L91.5542228 120L39.78011 120C28.7856072 120 19.79010494 129 19.79010494 140C19.79010494 151 28.7856072 160 39.78011 160L139.730135 160z" />
    <glyph glyph-name="add"
      unicode="&#xF109;"
      horiz-adv-x="400" d="M200 400C89.6 400 0 310.4 0 200C0 89.6 89.6 0 200 0S400 89.6 400 200C400 310.4 310.4 400 200 400zM200 40C111.6 40 40 111.6 40 200S111.6 360 200 360S360 288.4 360 200S288.4 40 200 40zM300 220H220V300C220 311 211 320 200 320S180 311 180 300V220H100C89 220 80 211 80 200C80 189 89 180 100 180H180V100C180 89 189 80 200 80S220 89 220 100V180H300C311 180 320 189 320 200C320 211 311 220 300 220z" />
    <glyph glyph-name="aimpoints-target"
      unicode="&#xF335;"
      horiz-adv-x="400" d="M45.9164 156.742C32.4324 153.006 20.2204 146.21 10.07474 137.15C3.53794 156.914 0 178.044 0 200C0 310.457 89.543 400 200 400C221.956 400 243.086 396.46206 262.85 389.92526C253.79 379.7794 246.994 367.5674 243.258 354.0836C229.5 357.9386 214.99 360 200 360C111.6344 360 40 288.3656 40 200C40 185.01 42.0614 170.5 45.9164 156.742zM360 200C360 214.9902 357.938 229.499 354.084 243.2584C367.568 246.9938 379.7800000000001 253.789 389.9260000000001 262.8494C396.462 243.0852 400 221.9558 400 200C400 89.544 310.456 0 200 0C178.0442 0 156.9148 3.538 137.1506 10.074C146.211 20.22 153.0062 32.432 156.7416 45.916C170.501 42.062 185.0096 40 200 40C288.366 40 360 111.634 360 200zM380 330C380 302.3858 357.6140000000001 280 330 280C302.386 280 280 302.3858 280 330C280 357.6142 302.386 380 330 380C357.6140000000001 380 380 357.6142 380 330zM120 70C120 42.386 97.6142 20 70 20C42.3858 20 20 42.386 20 70C20 97.614 42.3858 120 70 120C97.6142 120 120 97.614 120 70zM200 320C188.955 320 180 311.0462 180 300V240C180 228.9538 188.955 220 200 220C211.044 220 220 228.9538 220 240V300C220 311.0462 211.044 320 200 320zM220 200C220 211.0462 228.956 220 240 220H300C311.044 220 320 211.0462 320 200C320 188.954 311.044 180 300 180H240C228.956 180 220 188.954 220 200zM80 200C80 211.0462 88.955 220 100 220H160C171.045 220 180 211.0462 180 200C180 188.954 171.045 180 160 180H100C88.955 180 80 188.954 80 200zM180 160C180 171.046 188.955 180 200 180C211.044 180 220 171.046 220 160V100C220 88.954 211.044 80 200 80C188.955 80 180 88.954 180 100V160z" />
    <glyph glyph-name="airplane"
      unicode="&#xF10A;"
      horiz-adv-x="400" d="M400 360C400 382 382 400 360 400C349 400 339 395.6 331.8 388.2L235 291.4L40 380L20 340L170.6 227.2L83.4 140H20L0 120L80 80L120 0L140 20V83.4L227.2 170.6L340 20L380 40L291.4 234.8L388.2 331.6C395.6 339 400 349 400 360z" />
    <glyph glyph-name="align-center"
      unicode="&#xF10B;"
      horiz-adv-x="400" d="M100 300C89 300 80 291 80 280C80 269 89 260 100 260H300C311 260 320 269 320 280C320 291 311 300 300 300H100zM20 340H380C391 340 400 349 400 360C400 371 391 380 380 380H20C9 380 0 371 0 360C0 349 9 340 20 340zM260 100C271 100 280 109 280 120C280 131 271 140 260 140H140C129 140 120 131 120 120C120 109 129 100 140 100H260zM340 60H60C49 60 40 51 40 40C40 29 49 20 60 20H340C351 20 360 29 360 40C360 51 351 60 340 60zM380 220H20C9 220 0 211 0 200C0 189 9 180 20 180H380C391 180 400 189 400 200C400 211 391 220 380 220z" />
    <glyph glyph-name="align-justify"
      unicode="&#xF10C;"
      horiz-adv-x="400" d="M20 340H380C391 340 400 349 400 360C400 371 391 380 380 380H20C9 380 0 371 0 360C0 349 9 340 20 340zM380 60H20C9 60 0 51 0 40C0 29 9 20 20 20H380C391 20 400 29 400 40C400 51 391 60 380 60zM380 300H20C9 300 0 291 0 280C0 269 9 260 20 260H380C391 260 400 269 400 280C400 291 391 300 380 300zM380 220H20C9 220 0 211 0 200C0 189 9 180 20 180H380C391 180 400 189 400 200C400 211 391 220 380 220zM380 140H20C9 140 0 131 0 120C0 109 9 100 20 100H380C391 100 400 109 400 120C400 131 391 140 380 140z" />
    <glyph glyph-name="align-left"
      unicode="&#xF10D;"
      horiz-adv-x="400" d="M20 260H220C231 260 240 269 240 280C240 291 231 300 220 300H20C9 300 0 291 0 280C0 269 9 260 20 260zM20 340H380C391 340 400 349 400 360C400 371 391 380 380 380H20C9 380 0 371 0 360C0 349 9 340 20 340zM300 60H20C9 60 0 51 0 40C0 29 9 20 20 20H300C311 20 320 29 320 40C320 51 311 60 300 60zM380 220H20C9 220 0 211 0 200C0 189 9 180 20 180H380C391 180 400 189 400 200C400 211 391 220 380 220zM20 100H140C151 100 160 109 160 120C160 131 151 140 140 140H20C9 140 0 131 0 120C0 109 9 100 20 100z" />
    <glyph glyph-name="align-right"
      unicode="&#xF10E;"
      horiz-adv-x="400" d="M380 60H100C89 60 80 51 80 40C80 29 89 20 100 20H380C391 20 400 29 400 40C400 51 391 60 380 60zM20 340H380C391 340 400 349 400 360C400 371 391 380 380 380H20C9 380 0 371 0 360C0 349 9 340 20 340zM380 140H260C249 140 240 131 240 120C240 109 249 100 260 100H380C391 100 400 109 400 120C400 131 391 140 380 140zM380 220H20C9 220 0 211 0 200C0 189 9 180 20 180H380C391 180 400 189 400 200C400 211 391 220 380 220zM380 300H180C169 300 160 291 160 280C160 269 169 260 180 260H380C391 260 400 269 400 280C400 291 391 300 380 300z" />
    <glyph glyph-name="alignment-bottom"
      unicode="&#xF10F;"
      horiz-adv-x="400" d="M240 80H320C331 80 340 89 340 100V240C340 251 331 260 320 260H240C229 260 220 251 220 240V100C220 89 229 80 240 80zM380 40H20C9 40 0 31 0 20S9 0 20 0H380C391 0 400 9 400 20S391 40 380 40zM80 80H160C171 80 180 89 180 100V380C180 391 171 400 160 400H80C69 400 60 391 60 380V100C60 89 69 80 80 80z" />
    <glyph glyph-name="alignment-horizontal-center"
      unicode="&#xF110;"
      horiz-adv-x="400" d="M380 220H340V260C340 271 331 280 320 280H240C229 280 220 271 220 260V220H180V340C180 351 171 360 160 360H80C69 360 60 351 60 340V220H20C9 220 0 211 0 200C0 189 9 180 20 180H60V60C60 49 69 40 80 40H160C171 40 180 49 180 60V180H220V140C220 129 229 120 240 120H320C331 120 340 129 340 140V180H380C391 180 400 189 400 200C400 211 391 220 380 220z" />
    <glyph glyph-name="alignment-left"
      unicode="&#xF111;"
      horiz-adv-x="400" d="M20 400C9 400 0 391 0 380V20C0 9 9 0 20 0S40 9 40 20V380C40 391 31 400 20 400zM240 180H100C89 180 80 171 80 160V80C80 69 89 60 100 60H240C251 60 260 69 260 80V160C260 171 251 180 240 180zM380 340H100C89 340 80 331 80 320V240C80 229 89 220 100 220H380C391 220 400 229 400 240V320C400 331 391 340 380 340z" />
    <glyph glyph-name="alignment-right"
      unicode="&#xF112;"
      horiz-adv-x="400" d="M380 400C369 400 360 391 360 380V20C360 9 369 0 380 0S400 9 400 20V380C400 391 391 400 380 400zM300 180H160C149 180 140 171 140 160V80C140 69 149 60 160 60H300C311 60 320 69 320 80V160C320 171 311 180 300 180zM300 340H20C9 340 0 331 0 320V240C0 229 9 220 20 220H300C311 220 320 229 320 240V320C320 331 311 340 300 340z" />
    <glyph glyph-name="alignment-top"
      unicode="&#xF113;"
      horiz-adv-x="400" d="M160 320H80C69 320 60 311 60 300V20C60 9 69 0 80 0H160C171 0 180 9 180 20V300C180 311 171 320 160 320zM380 400H20C9 400 0 391 0 380S9 360 20 360H380C391 360 400 369 400 380S391 400 380 400zM320 320H240C229 320 220 311 220 300V160C220 149 229 140 240 140H320C331 140 340 149 340 160V300C340 311 331 320 320 320z" />
    <glyph glyph-name="alignment-vertical-center"
      unicode="&#xF114;"
      horiz-adv-x="400" d="M340 340H220V380C220 391 211 400 200 400S180 391 180 380V340H60C49 340 40 331 40 320V240C40 229 49 220 60 220H180V180H140C129 180 120 171 120 160V80C120 69 129 60 140 60H180V20C180 9 189 0 200 0S220 9 220 20V60H260C271 60 280 69 280 80V160C280 171 271 180 260 180H220V220H340C351 220 360 229 360 240V320C360 331 351 340 340 340z" />
    <glyph glyph-name="ammunition"
      unicode="&#xF342;"
      horiz-adv-x="400" d="M120 280V283.4314C120 319.6516 105.6116 354.3884 80 380C54.3884 354.3884 40 319.6516 40 283.4314V280H120zM120 40V20H40V40H120zM120 60V260H40V60H120zM160 20V40H240V20H160zM240 283.4314V280H160V283.4314C160 319.6516 174.3884 354.3884 200 380C225.612 354.3884 240 319.6516 240 283.4314zM240 260V60H160V260H240zM280 40V20H360V40H280zM360 280V283.4314C360 319.6516 345.612 354.3884 320 380C294.3880000000001 354.3884 280 319.6516 280 283.4314V280H360zM360 60V260H280V60H360z" />
    <glyph glyph-name="anchor"
      unicode="&#xF330;"
      horiz-adv-x="400" d="M220 283.4142C243.304 291.6508 260 313.8756 260 340C260 373.137 233.138 400 200 400C166.863 400 140 373.137 140 340C140 313.8756 156.6962 291.6508 180 283.4142V260H120V220H180V41.66C126.0016 50.718 84.2316 95.84 80.3024 151.414L85.8578 145.858C93.6684 138.048 106.3316 138.048 114.1422 145.858C121.9526 153.668 121.9526 166.332 114.1422 174.142L74.1422 214.1422C66.3316 221.9526 53.6684 221.9526 45.8578 214.1422L5.85786 174.142C-1.952622 166.332 -1.952622 153.668 5.85786 145.858C13.66834 138.048 26.3316 138.048 34.1422 145.858L40.2006 151.916C44.4108 67.306 114.3452 0 200 0C285.654 0 355.59 67.306 359.8 151.916L365.858 145.858C373.668 138.048 386.332 138.048 394.142 145.858C401.952 153.668 401.952 166.332 394.142 174.142L354.142 214.1422C346.332 221.9526 333.668 221.9526 325.858 214.1422L285.858 174.142C278.048 166.332 278.048 153.668 285.858 145.858C293.668 138.048 306.332 138.048 314.142 145.858L319.698 151.414C315.768 95.84 273.998 50.718 220 41.66V220H280V260H220V283.4142zM220 340C220 328.9544 211.046 320 200 320C188.9544 320 180 328.9544 180 340C180 351.0456 188.9544 360 200 360C211.046 360 220 351.0456 220 340z" />
    <glyph glyph-name="annotation"
      unicode="&#xF115;"
      horiz-adv-x="400" d="M188.2 131.8L341.2000000000001 284.8L284.6 341.4L131.6 188.4L188.2 131.8zM388.2 331.8C395.6 339 400 349 400 360C400 382 382 400 360 400C349 400 339 395.6 331.8 388.2L298.8 355.2L355.4 298.6L388.2 331.8zM360 40H40V360H218.6L258.6 400H20C9 400 0 391 0 380V20C0 9 9 0 20 0H380C391 0 400 9 400 20V258.6L360 218.6V40zM80 80L168.2 111.8L112 167.6L80 80z" />
    <glyph glyph-name="antenna"
      unicode="&#xF116;"
      horiz-adv-x="400" d="M40.2052 184.838C42.3518 162.214 49.2698 140.382 60.414 120.754L60.8138 120.054C61.4722 118.906 62.0266 117.718 62.4772 116.504C65.7438 107.694 63.551 97.476 55.8902 91.72C47.1726 85.17 34.702 86.882 29.043 96.204C28.2022 97.588 27.3788 98.982 26.5728 100.386C25.91 101.54 25.259 102.7 24.6198 103.866C11.58612 127.644 3.47452 153.916 0.894362 181.108C-2.58976 217.8274 4.14826 254.7952 20.3634 287.9242C36.5786 321.0534 61.6394 349.053 92.775 368.8276C123.9106 388.60236 159.9082 399.381796 196.7878 399.9741972C233.668 400.566598 269.992 390.9489 301.748 372.1844C333.502 353.42 359.45 326.2396 376.72 293.6484C393.99 261.0574000000001 401.9120000000001 224.325 399.61 187.512C397.904 160.252 390.64 133.732 378.3780000000001 109.548C377.776 108.362 377.1620000000001 107.182 376.538 106.008C375.776 104.578 374.998 103.158 374.202 101.748C368.846 92.25 356.436 90.138 347.514 96.404C339.672 101.91 337.1520000000001 112.054 340.134 120.964C340.546 122.192 341.062 123.398 341.682 124.564L342.0600000000001 125.278C352.568 145.254 358.78 167.296 360.2000000000001 189.978C362.048 219.5224 355.6900000000001 249.0024 341.83 275.1588C327.968 301.3152 307.144 323.1292 281.658 338.189C256.174 353.2486 227.02 360.9674 197.422 360.492C167.8238 360.0166 138.9334 351.3654 113.9452 335.495C88.9568 319.6244000000001 68.844 297.153 55.8302 270.5648C42.8166 243.9766 37.4088 214.3076 40.2052 184.838zM125.6476 169.408C125.9296 168.722 126.185 168.028 126.4138 167.324C126.8736 165.91 127.2248 164.464 127.464 163.008C128.8608 154.496 126.427 145.608 119.4274 140.434C110.6342 133.934 98.0672 135.74 93.0992 145.482C91.621 148.38 90.2624 151.336 89.0262 154.34C88.6412 155.276 88.268 156.216 87.9068 157.162C83.9462 167.526 81.4234 178.436 80.4522 189.594C78.533 211.6412 82.7482 233.7898 92.6314 253.5908C102.5148 273.392 117.6814 290.0744000000001 136.4544 301.7936000000001C155.2274 313.5130000000001 176.8756 319.8124000000001 199.0056 319.9958000000001C221.136 320.1792000000001 242.886 314.2394 261.85 302.833C280.814 291.4264 296.256 274.9978 306.466 255.363C316.676 235.7284 321.258 213.6528 319.704 191.576C318.918 180.404 316.576 169.454 312.788 159.026C312.442 158.074 312.084 157.128 311.716 156.186C310.5300000000001 153.162 309.2200000000001 150.184 307.79 147.262C302.9840000000001 137.438 290.448 135.424 281.548 141.778C274.464 146.836 271.884 155.682 273.14 164.214C273.354 165.676 273.682 167.126 274.118 168.548C274.334 169.256 274.578 169.954 274.85 170.644C277.812 178.196 279.626 186.188 280.202 194.356C281.242 209.1474 278.1720000000001 223.938 271.332 237.0932C264.492 250.2484 254.146 261.2558 241.44 268.898C228.734 276.5404 214.16 280.5202 199.3338 280.3972C184.5068 280.2744 170.0024 276.0536 157.4246 268.2018C144.8466 260.3498 134.685 249.1726 128.0632 235.9058C121.4412 222.6392 118.6172 207.7996 119.903 193.028C120.613 184.87 122.561 176.91 125.6476 169.408zM219.874 117.746C219.958 118.486 220 119.238 220 120V200.0002C220 211.0458 211.046 220.0002 200 220.0002C188.9542 220.0002 180 211.0458 180 200.0002V120C180 119.238 180.0426 118.486 180.1256 117.746L105.052 33.288C97.7136 25.032 98.4572 12.39 106.7128 5.052C114.9686 -2.286 127.61 -1.542 134.9484 6.712L199.9998 79.896L265.048 6.714C272.386 -1.542 285.026 -2.286 293.282 5.052C301.538 12.39 302.2820000000001 25.032 294.944 33.286L219.874 117.746z" />
    <glyph glyph-name="app-header"
      unicode="&#xF117;"
      horiz-adv-x="400" d="M380 400C391.0456940000001 400 400 391.045695 400 380L400 20C400 8.954306 391.0456940000001 0 380 0L20 0C8.954305 0 0 8.954306 0 20L0 380C0 391.045695 8.954305 400 20 400L380 400zM160 280C160 291.045695 151.045695 300 140 300C129.7432832 300 121.2898568 292.2791962 120.1345546 282.3324226L120 280L120 120C120 108.954306 128.954305 100 140 100C150.2567168 100 158.7101432 107.720804 159.8654454 117.667578L160 120L160 180L240 180L240 120C240 108.954306 248.954306 100 260 100C270.256716 100 278.710144 107.720804 279.865446 117.667578L280 120L280 280C280 291.045695 271.045694 300 260 300C249.743284 300 241.289856 292.2791962 240.134554 282.3324226L240 280L240 220L160 220L160 280z" />
    <glyph glyph-name="application"
      unicode="&#xF118;"
      horiz-adv-x="400" d="M70 220H250C255.6 220 260 224.4 260 230C260 235.6 255.6 240 250 240H70C64.4 240 60 235.6 60 230C60 224.4 64.4 220 70 220zM70 180H170C175.6 180 180 184.4 180 190C180 195.6 175.6 200 170 200H70C64.4 200 60 195.6 60 190C60 184.4 64.4 180 70 180zM380 380H20C9 380 0 371 0 360V40C0 29 9 20 20 20H380C391 20 400 29 400 40V360C400 371 391 380 380 380zM360 60H40V280H360V60zM70 140H210C215.6 140 220 144.4 220 150C220 155.6 215.6 160 210 160H70C64.4 160 60 155.6 60 150C60 144.4 64.4 140 70 140z" />
    <glyph glyph-name="applications"
      unicode="&#xF119;"
      horiz-adv-x="400" d="M300 300H20C9 300 0 291 0 280V20C0 9 9 0 20 0H300C311 0 320 9 320 20V280C320 291 311 300 300 300zM280 40H40V240H280V40zM70 200H210C215.6 200 220 204.4 220 210C220 215.6 215.6 220 210 220H70C64.4 220 60 215.6 60 210C60 204.4 64.4 200 70 200zM70 160H130C135.6 160 140 164.4 140 170C140 175.6 135.6 180 130 180H70C64.4 180 60 175.6 60 170C60 164.4 64.4 160 70 160zM70 120H170C175.6 120 180 124.4 180 130C180 135.6 175.6 140 170 140H70C64.4 140 60 135.6 60 130C60 124.4 64.4 120 70 120zM380 400H100C89 400 80 391 80 380V320H120V340H360V140H340V100H380C391 100 400 109 400 120V380C400 391 391 400 380 400z" />
    <glyph glyph-name="archive"
      unicode="&#xF11A;"
      horiz-adv-x="400" d="M328.676192 400C335.70145 400 342.211586 396.31402332 345.82605 390.2899151L400 300L400 20C400 8.954306 391.0456940000001 0 380 0L20 0C8.954305 0 0 8.954306 0 20L0 300L54.173949 390.2899151C57.788414 396.31402332 64.2985506 400 71.3238076 400L328.676192 400zM200 240C189 240 180 231 180 220L180 220L180 128.4L154.2 154.2L152.573761 155.66589C149.1591836 158.436734 144.8 160.2 140 160.2C129 160.2 120 151.2 120 140.2C120 134.6 122.2 129.6 125.8 126L125.8 126L185.8 66L187.712963 64.32037C191.0833334 61.727778 195.3333334 60.2000000000001 200 60.2000000000001C205.6 60.2000000000001 210.6 62.4 214.2 66L214.2 66L274.2000000000001 126L275.87963 127.912962C278.472222 131.283334 280 135.533334 280 140.2C280 151.2 271 160.2 260 160.2C254.4 160.2 249.4 158 245.8 154.4L245.8 154.4L220 128.4L220 220L219.864796 222.3239796C218.704082 232.239796 210.214286 240 200 240zM320 360L80 360L40 299.9675252L360 299.9675252L320 360z" />
    <glyph glyph-name="area-of-interest"
      unicode="&#xF11B;"
      horiz-adv-x="400" d="M100.0002 306.725C100.0002 358.175 144.8276 400 200 400C255.172 400 299.818 358.175 300 306.725C300 255.1 200 120 200 120C200 120 100.0002 255.1 100.0002 306.725zM160 300C160 277.92 177.9202 260 200 260C222.08 260 240 277.92 240 300C240 322.08 222.08 340 200 340C177.9202 340 160 322.08 160 300zM10.07784 157.366L96.1162 206.5278C102.5572 195.002 109.3598 183.616 116.0262 172.89L116.5104 172.112L50.6398 134.474L129.3676 39.996L270.632 40L349.36 134.472L283.49 172.112L283.974 172.89C290.64 183.616 297.442 195.002 303.884 206.5274L389.922 157.364C395.058 154.43 398.632 149.372 399.682 143.55C400.732 137.728 399.152 131.74 395.3640000000001 127.196L295.3640000000001 7.196C291.564 2.636 285.936 0 280 0L120.0006 -0.004C114.0646 -0.004 108.4354 2.6319999999999 104.6354 7.192L4.63548 127.198C0.848502 131.742 -0.732348 137.73 0.317864 143.552C1.368074 149.374 4.9416 154.432 10.07784 157.366z" />
    <glyph glyph-name="array-boolean"
      unicode="&#xF11C;"
      horiz-adv-x="400" d="M380 400C390.2567160000001 400 398.710144 392.2791962 399.865446 382.3324225L400 380L400 20C400 9.743284 392.279196 1.289856 382.332422 0.134554L380 0L300 0C288.9543060000001 0 280 8.954306 280 20C280 30.256716 287.720804 38.710144 297.667578 39.865446L300 40L360 40L360 360L300 360C289.743284 360 281.289856 367.7208038 280.1345540000001 377.6675774000001L280 380C280 390.25671678 287.720804 398.7101432140001 297.667578 399.8654453736L300 400L380 400zM100 400C111.045695 400 120 391.045695 120 380C120 369.7432832 112.2791962 361.2898568 102.3324226 360.1345546L100 360L40 360L40 40L100 40C110.2567168 40 118.7101432 32.279196 119.8654454 22.332422L120 20C120 9.743284 112.2791962 1.289856 102.3324226 0.134554L100 0L20 0C9.74328322 0 1.289856786 7.720804 0.1345546266 17.667578L0 20L0 380C0 390.25671678 7.7208038 398.7101432140001 17.6675775 399.8654453734L20 400L100 400zM300 260C310.256716 260 318.710144 252.2791962 319.865446 242.3324226L320 240L320 160C320 149.743284 312.279196 141.289856 302.332422 140.134554L300 140L100 140C89.7432832 140 81.2898568 147.720804 80.1345546 157.667578L80 160L80 240C80 250.2567168 87.7208038 258.7101432 97.6675774 259.8654454L100 260L300 260zM300 240L200 240L200 160L300 160L300 240z" />
    <glyph glyph-name="array-date"
      unicode="&#xF11D;"
      horiz-adv-x="400" d="M380 400C390.2567160000001 400 398.710144 392.2791962 399.865446 382.3324225L400 380L400 20C400 9.743284 392.279196 1.289856 382.332422 0.134554L380 0L300 0C288.9543060000001 0 280 8.954306 280 20C280 30.256716 287.720804 38.710144 297.667578 39.865446L300 40L360 40L360 360L300 360C289.743284 360 281.289856 367.7208038 280.1345540000001 377.6675774000001L280 380C280 390.25671678 287.720804 398.7101432140001 297.667578 399.8654453736L300 400L380 400zM100 400C111.045695 400 120 391.045695 120 380C120 369.7432832 112.2791962 361.2898568 102.3324226 360.1345546L100 360L40 360L40 40L100 40C110.2567168 40 118.7101432 32.279196 119.8654454 22.332422L120 20C120 9.743284 112.2791962 1.289856 102.3324226 0.134554L100 0L20 0C9.74328322 0 1.289856786 7.720804 0.1345546266 17.667578L0 20L0 380C0 390.25671678 7.7208038 398.7101432140001 17.6675775 399.8654453734L20 400L100 400zM150 300C155.5228474 300 160 295.5228474 160 290L160 280L240 280L240 290C240 295.5228474 244.477152 300 250 300L270 300C275.522848 300 280 295.5228474 280 290L280 280L300 280C310.256716 280 318.710144 272.2791962 319.865446 262.3324226L320 260L320 120C320 109.743284 312.279196 101.289856 302.332422 100.134554L300 100L100 100C89.7432832 100 81.2898568 107.720804 80.1345546 117.667578L80 120L80 260C80 270.2567168 87.7208038 278.7101432 97.6675774 279.8654454L100 280L120 280L120 290C120 295.5228474 124.4771526 300 130 300L150 300zM300 220L100 220L100 120L300 120L300 220z" />
    <glyph glyph-name="array-floating-point"
      unicode="&#xF32D;"
      horiz-adv-x="400" d="M399.832 377.9156C398.388 390.349 387.82 400 375 400H300C290.586 400 280 392.8209 280 380C280 367.1792 290 360 300.458 360H360.458L360 40H300C290 40 280 32.8199999999999 280 20C280 6.192 290 0 300 0H375L377.9160000000001 0.168C390.35 1.612 400 12.1800000000001 400 25V375L399.832 377.9156zM120 380C120 393.80712 110 400 100 400H25L22.0844 399.8318068C9.651 398.38768 0 387.8209 0 375V25L0.1681932 22.0839999999999C1.61232 9.65 12.1791 0 25 0H100C110 0 120 7.1800000000001 120 20C120 32.8199999999999 110 40 100 40H40V360H100C110 360 120 367.1792 120 380zM108.678 253.508C104.2494 252.7264 99.6904 252.3358 95.0012 252.3358V234.7514H128.607V138.232H153.0296V275H134.8592C134.0776 270.8318000000001 132.3842 267.315 129.7792 264.4494C127.3044 261.5838 124.2434 259.2392 120.5962 257.4156C117.0794 255.592 113.1066 254.2896 108.678 253.508zM286.542 268.2716C280.6500000000001 272.6596 273.002 274.8536000000001 263.598 274.8536000000001C254.196 274.8536000000001 246.486 272.6596 240.468 268.2716C234.576 264.009 229.938 258.4928 226.552 251.7228C223.292 245.0782 221.036 237.744 219.782 229.7204C218.654 221.6966 218.09 213.9236 218.09 206.4014C218.09 198.88 218.654 191.106 219.782 183.082C221.036 175.058 223.292 167.662 226.552 160.892C229.938 154.248 234.576 148.732 240.468 144.344C246.486 140.08 254.196 137.9500000000001 263.598 137.9500000000001C273.002 137.9500000000001 280.6500000000001 140.08 286.542 144.344C292.56 148.732 297.198 154.248 300.458 160.892C303.842 167.662 306.1 175.058 307.228 183.082C308.482 191.106 309.108 198.88 309.108 206.4014C309.108 213.9236 308.482 221.6966 307.228 229.7204C306.1 237.744 303.842 245.0782 300.458 251.7228C297.198 258.4928 292.56 264.009 286.542 268.2716zM275.258 159.764C272.124 157.132 268.238 155.814 263.598 155.814C258.834 155.814 254.886 157.132 251.752 159.764C248.742 162.522 246.298 166.158 244.418 170.672C242.662 175.31 241.408 180.7 240.656 186.844C239.904 192.986 239.528 199.506 239.528 206.4014C239.528 213.2968 239.904 219.7534 240.656 225.7712C241.408 231.9142 242.662 237.3052 244.418 241.9438C246.298 246.5826 248.742 250.2182 251.752 252.851C254.886 255.6092 258.834 256.9882 263.598 256.9882C268.238 256.9882 272.124 255.6092 275.258 252.851C278.392 250.2182 280.838 246.5826 282.592 241.9438C284.474 237.3052 285.79 231.9142 286.542 225.7712C287.294 219.7534 287.67 213.2968 287.67 206.4014C287.67 199.506 287.294 192.986 286.542 186.844C285.79 180.7 284.474 175.31 282.592 170.672C280.838 166.158 278.392 162.522 275.258 159.764zM177.0618 163.868H204.22V137.49H177.0618V163.868z" />
    <glyph glyph-name="array-numeric"
      unicode="&#xF11E;"
      horiz-adv-x="400" d="M380 400C390.2567160000001 400 398.710144 392.2791962 399.865446 382.3324225L400 380L400 20C400 9.743284 392.279196 1.289856 382.332422 0.134554L380 0L300 0C288.9543060000001 0 280 8.954306 280 20C280 30.256716 287.720804 38.710144 297.667578 39.865446L300 40L360 40L360 360L300 360C289.743284 360 281.289856 367.7208038 280.1345540000001 377.6675774000001L280 380C280 390.25671678 287.720804 398.7101432140001 297.667578 399.8654453736L300 400L380 400zM100 400C111.045695 400 120 391.045695 120 380C120 369.7432832 112.2791962 361.2898568 102.3324226 360.1345546L100 360L40 360L40 40L100 40C110.2567168 40 118.7101432 32.279196 119.8654454 22.332422L120 20C120 9.743284 112.2791962 1.289856 102.3324226 0.134554L100 0L20 0C9.74328322 0 1.289856786 7.720804 0.1345546266 17.667578L0 20L0 380C0 390.25671678 7.7208038 398.7101432140001 17.6675775 399.8654453734L20 400L100 400zM279.9 278.2C286.3 278.2 291.9666660000001 277.2666666 296.9000000000001 275.4C301.833334 273.5333334 306 270.9333334 309.4000000000001 267.6C312.8 264.2666666 315.4 260.3 317.2 255.7C319 251.1 319.9 246.0666666 319.9 240.6C319.9 234.8666666 318.633334 229.5666666 316.1 224.7C313.566666 219.8333334 309.766666 215.7333334 304.7 212.4L304.7 212.4L304.7 212L306.722222 211.0111112C308.085186 210.225926 309.477778 209.1888888 310.9 207.9C313.033334 205.9666666 314.9666660000001 203.6 316.7000000000001 200.8C318.433334 198 319.866666 194.766666 321 191.1C322.1333340000001 187.433334 322.7000000000001 183.4 322.7000000000001 179C322.7000000000001 172.733334 321.633334 167.066666 319.5 162C317.366666 156.933334 314.4000000000001 152.6 310.6 149C306.8 145.4 302.3 142.633334 297.1 140.7C291.9000000000001 138.766666 286.233334 137.8 280.1 137.8C269.433334 137.8 260.3 140.333334 252.7 145.4C245.1 150.466666 240.233334 157.666666 238.1 167C237.833334 168.333334 238.366666 169.2 239.7 169.6L239.7 169.6L257.1 173.6L257.925 173.6625C258.675 173.5875 259.2000000000001 173.1 259.5 172.2C260.966666 168.2 263.366666 164.8 266.7000000000001 162C270.033334 159.2 274.5 157.8 280.1 157.8C286.5 157.8 291.433334 159.7 294.9 163.5C298.366666 167.3 300.1 172.133334 300.1 178C300.1 184.933334 298.1 190.366666 294.1 194.3C290.1 198.233334 284.7 200.2 277.9 200.2L277.9 200.2L272.1 200.2L271.225 200.325C270.475 200.575 270.1 201.2 270.1 202.2L270.1 202.2L270.1 218L270.225 218.875C270.475 219.625 271.1 220 272.1 220L272.1 220L277.5 220L280.4 220.15C285.066666 220.65 288.9 222.4 291.9000000000001 225.4C295.5 229 297.3 233.8 297.3 239.8C297.3 245.2666666 295.7 249.7 292.5 253.1C289.3 256.5 284.833334 258.2 279.1 258.2C274.033334 258.2 270.033334 256.9333334000001 267.1 254.4C264.166666 251.8666666 262.1 248.4666666 260.9 244.2C260.5 243 259.7 242.5333334 258.5 242.8L258.5 242.8L241.5 246.8L240.65 247.1C239.95 247.5 239.7 248.2 239.9 249.2C240.7 253.3333334 242.2 257.1666666 244.4 260.7C246.6 264.2333334 249.4 267.3 252.8 269.9C256.2 272.5 260.2 274.5333334 264.8 276C269.4000000000001 277.4666666 274.433334 278.2 279.9 278.2zM120.1 276L120.975 275.875C121.725 275.625 122.1 275 122.1 274L122.1 274L122.1 142L121.975 141.125C121.725 140.375 121.1 140 120.1 140L120.1 140L101.7 140L100.825 140.125C100.075 140.375 99.7 141 99.7 142L99.7 142L99.7 249.2L99.3 249.2L78.5 234.6L77.708 234.2C76.7693334 233.88 76.3 234.4133334 76.3 235.8L76.3 235.8L76.3 256.2L76.4555556 257.2222222000001C76.662963 257.874074 77.0777778 258.4666666 77.7 259L77.7 259L99.5 274.8L100.5222222 275.4666666C101.262963 275.8222222 102.1222222 276 103.1 276L103.1 276L120.1 276zM186.9 278.2C193.3 278.2 198.9666666 277.2 203.9 275.2C208.833334 273.2 213 270.5 216.4 267.1C219.8 263.7 222.4 259.7000000000001 224.2 255.1C226 250.5 226.9 245.5333334 226.9 240.2C226.9 234.0666666 225.766666 228.4333334 223.5 223.3C221.233334 218.1666666 218.1 213.2 214.1 208.4L214.1 208.4L174.5 160.4L174.5 160L224.9 160L225.775 159.875C226.525 159.625 226.9 159 226.9 158L226.9 158L226.9 142L226.775 141.125C226.525 140.375 225.9 140 224.9 140L224.9 140L148.5 140L147.625 140.125C146.875 140.375 146.5 141 146.5 142L146.5 142L146.5 157L146.6111112 158C146.7592592 158.622222 147.0555556 159.155556 147.5 159.6L147.5 159.6L195.5 219.4L197.9888888 222.7333334C199.5296296 224.9555556 200.833334 227.1777778 201.9 229.4C203.5 232.7333334 204.3 236.3333334 204.3 240.2C204.3 245.2666666 202.733334 249.5333334 199.6 253C196.4666666 256.4666666 192.0333334 258.2 186.3 258.2C180.8333334 258.2 176.5666666 256.6666666 173.5 253.6C170.4333334 250.5333334 168.5666666 246.4 167.9 241.2C167.6333334 239.8666666 166.9 239.3333334 165.7 239.6L165.7 239.6L148.1 243.2L147.25 243.5C146.55 243.9 146.3 244.6 146.5 245.6C146.9 249.6 148.0333334 253.5333334 149.9 257.4C151.7666666 261.2666666 154.3666666 264.7666666 157.7 267.9C161.0333334 271.0333334 165.1333334 273.5333334 170 275.4C174.8666666 277.2666666 180.5 278.2 186.9 278.2z" />
    <glyph glyph-name="array-string"
      unicode="&#xF11F;"
      horiz-adv-x="400" d="M380 400C390.2567160000001 400 398.710144 392.2791962 399.865446 382.3324225L400 380L400 20C400 9.743284 392.279196 1.289856 382.332422 0.134554L380 0L300 0C288.9543060000001 0 280 8.954306 280 20C280 30.256716 287.720804 38.710144 297.667578 39.865446L300 40L360 40L360 360L300 360C289.743284 360 281.289856 367.7208038 280.1345540000001 377.6675774000001L280 380C280 390.25671678 287.720804 398.7101432140001 297.667578 399.8654453736L300 400L380 400zM100 400C111.045695 400 120 391.045695 120 380C120 369.7432832 112.2791962 361.2898568 102.3324226 360.1345546L100 360L40 360L40 40L100 40C110.2567168 40 118.7101432 32.279196 119.8654454 22.332422L120 20C120 9.743284 112.2791962 1.289856 102.3324226 0.134554L100 0L20 0C9.74328322 0 1.289856786 7.720804 0.1345546266 17.667578L0 20L0 380C0 390.25671678 7.7208038 398.7101432140001 17.6675775 399.8654453734L20 400L100 400zM140.2325582 280C153.1007752 280 164.3023256 274.6899224 173.8372094 264.0697674C183.372093 253.4496124 188.1395348 239.1472868 188.1395348 221.1627906C188.1395348 200.2325582 181.7054264 181.472868 168.8372094 164.88372C155.9689922 148.294574 135.6589148 134.88372 107.9069768 124.651162L107.9069768 124.651162L107.9069768 136.27907L113.1036462 138.367786C126.6245574 144.270744 137.4504738 152.83807 145.5813954 164.069768C154.7286822 176.705426 159.3023256 189.844962 159.3023256 203.488372C159.3023256 206.4341086 158.8372094 208.6046512 157.9069768 210C157.4418604 210.9302326 156.8217054 211.3953488 156.0465116 211.3953488C155.2713178 211.3953488 154.0310078 210.7751938 152.3255814 209.5348838C147.364341 205.9689922 141.1627906 204.1860466 133.7209302 204.1860466C124.7286822 204.1860466 116.8604652 207.7906976 110.116279 215C103.372093 222.2093024 100 230.7751938 100 240.6976744C100 251.24031 103.875969 260.4263566 111.627907 268.255814C119.379845 276.0852714 128.9147286 280 140.2325582 280zM252.093024 280C264.96124 280 276.16279 274.6899224 285.697674 264.0697674C295.2325580000001 253.4496124 300 239.1472868 300 221.1627906C300 200.2325582 293.565892 181.472868 280.697674 164.88372C267.829458 148.294574 247.51938 134.88372 219.767442 124.651162L219.767442 124.651162L219.767442 136.27907L224.964112 138.367786C238.485022 144.270744 249.310938 152.83807 257.44186 164.069768C266.589148 176.705426 271.16279 189.844962 271.16279 203.488372C271.16279 206.4341086 270.697674 208.6046512 269.767442 210C269.302326 210.9302326 268.6821700000001 211.3953488 267.906976 211.3953488C267.1317820000001 211.3953488 265.891472 210.7751938 264.186046 209.5348838C259.224806 205.9689922 253.023256 204.1860466 245.581396 204.1860466C236.589148 204.1860466 228.72093 207.7906976 221.976744 215C215.232558 222.2093024 211.860466 230.7751938 211.860466 240.6976744C211.860466 251.24031 215.736434 260.4263566 223.488372 268.255814C231.24031 276.0852714 240.775194 280 252.093024 280z" />
    <glyph glyph-name="array-timestamp"
      unicode="&#xF120;"
      horiz-adv-x="400" d="M380 400C390.2567160000001 400 398.710144 392.2791962 399.865446 382.3324225L400 380L400 20C400 9.743284 392.279196 1.289856 382.332422 0.134554L380 0L300 0C288.9543060000001 0 280 8.954306 280 20C280 30.256716 287.720804 38.710144 297.667578 39.865446L300 40L360 40L360 360L300 360C289.743284 360 281.289856 367.7208038 280.1345540000001 377.6675774000001L280 380C280 390.25671678 287.720804 398.7101432140001 297.667578 399.8654453736L300 400L380 400zM100 400C111.045695 400 120 391.045695 120 380C120 369.7432832 112.2791962 361.2898568 102.3324226 360.1345546L100 360L40 360L40 40L100 40C110.2567168 40 118.7101432 32.279196 119.8654454 22.332422L120 20C120 9.743284 112.2791962 1.289856 102.3324226 0.134554L100 0L20 0C9.74328322 0 1.289856786 7.720804 0.1345546266 17.667578L0 20L0 380C0 390.25671678 7.7208038 398.7101432140001 17.6675775 399.8654453734L20 400L100 400zM200 320C266.2741700000001 320 320 266.2741700000001 320 200C320 133.72583 266.2741700000001 80 200 80C133.72583 80 80 133.72583 80 200C80 266.2741700000001 133.72583 320 200 320zM200 300C144.771525 300 100 255.228475 100 200C100 144.771526 144.771525 100 200 100C255.228474 100 300 144.771526 300 200C300 255.228475 255.228474 300 200 300zM257.071068 257.0710678000001C260.542394 253.5997408 260.9280980000001 248.2112528 258.228176 244.31389L257.071068 242.9289322L207.071068 192.928932C203.59974 189.457606 198.2112528 189.071902 194.31389 191.771824L192.9289322 192.928932L162.9289322 222.9289322C159.0236892 226.8341752 159.0236892 233.1658248 162.9289322 237.0710678C166.4002592 240.5423948 171.7887472 240.9280978 175.68611 238.2281768L177.0710678 237.0710678L200 214.14L242.9289320000001 257.0710678000001C246.834176 260.9763108 253.165824 260.9763108 257.071068 257.0710678000001z" />
    <glyph glyph-name="array"
      unicode="&#xF121;"
      horiz-adv-x="400" d="M380 400C390.2567160000001 400 398.710144 392.2791962 399.865446 382.3324225L400 380L400 20C400 9.743284 392.279196 1.289856 382.332422 0.134554L380 0L300 0C288.9543060000001 0 280 8.954306 280 20C280 30.256716 287.720804 38.710144 297.667578 39.865446L300 40L360 40L360 360L300 360C289.743284 360 281.289856 367.7208038 280.1345540000001 377.6675774000001L280 380C280 390.25671678 287.720804 398.7101432140001 297.667578 399.8654453736L300 400L380 400zM100 400C111.045695 400 120 391.045695 120 380C120 369.7432832 112.2791962 361.2898568 102.3324226 360.1345546L100 360L40 360L40 40L100 40C110.2567168 40 118.7101432 32.279196 119.8654454 22.332422L120 20C120 9.743284 112.2791962 1.289856 102.3324226 0.134554L100 0L20 0C9.74328322 0 1.289856786 7.720804 0.1345546266 17.667578L0 20L0 380C0 390.25671678 7.7208038 398.7101432140001 17.6675775 399.8654453734L20 400L100 400zM200 220C211.045694 220 220 211.045695 220 200C220 188.954306 211.045694 180 200 180C188.954305 180 180 188.954306 180 200C180 211.045695 188.954305 220 200 220zM120 220C131.045695 220 140 211.045695 140 200C140 188.954306 131.045695 180 120 180C108.954305 180 100 188.954306 100 200C100 211.045695 108.954305 220 120 220zM280 220C291.045694 220 300 211.045695 300 200C300 188.954306 291.045694 180 280 180C268.9543060000001 180 260 188.954306 260 200C260 211.045695 268.9543060000001 220 280 220z" />
    <glyph glyph-name="arrow-bottom-left"
      unicode="&#xF122;"
      horiz-adv-x="400" d="M360 340C360 351 351 360 340 360C334.4 360 329.4 357.8 325.8 354.2L80 108.2V260C80 271 71 280 60 280S40 271 40 260V60C40 49 49 40 60 40H260C271 40 280 49 280 60C280 71 271 80 260 80H108.2L354.2000000000001 325.8C357.8 329.4 360 334.4 360 340z" />
    <glyph glyph-name="arrow-bottom-right"
      unicode="&#xF123;"
      horiz-adv-x="400" d="M340 280C329 280 320 271 320 260V108.2L74.2 354.2C70.6 357.8 65.6 360 60 360C49 360 40 351 40 340C40 334.4 42.2 329.4 45.8 325.8L291.8 80H140C129 80 120 71 120 60C120 49 129 40 140 40H340C351 40 360 49 360 60V260C360 271 351 280 340 280z" />
    <glyph glyph-name="arrow-down"
      unicode="&#xF124;"
      horiz-adv-x="400" d="M320 180C314 180 310 178 306 174L220 88V360C220 370 212 380 200 380S180 370 180 360V88L94 174C90 178 86 180 80 180C70 180 60 172 60 160C60 154 62 150 66 146L186 26C190 22 194 20 200 20S210 22 214 26L334 146C338 150 340 154 340 160C340 172 330 180 320 180L320 180z" />
    <glyph glyph-name="arrow-left"
      unicode="&#xF125;"
      horiz-adv-x="400" d="M360 220H88.2L174 305.8C177.8 309.4 180 314.4 180 320C180 331 171 340 160 340C154.4 340 149.4 337.8 145.8 334.2L25.8 214.2C22.2 210.6 20 205.6 20 200C20 194.4 22.2 189.4 25.8 185.8L145.8 65.8C149.4 62.2 154.4 60 160 60C171 60 180 69 180 80C180 85.6 177.8 90.6 174.2 94.2000000000001L88.2 180H360C371 180 380 189 380 200C380 211 371 220 360 220z" />
    <glyph glyph-name="arrow-right"
      unicode="&#xF126;"
      horiz-adv-x="400" d="M374.2000000000001 214.2L254.2 334.2000000000001C250.6 337.8 245.6 340 240 340C229 340 220 331 220 320C220 314.4 222.2 309.4 225.8 305.8L311.8 220H40C29 220 20 211 20 200C20 189 29 180 40 180H311.8L226 94.2000000000001C222.2 90.6 220 85.6 220 80C220 69 229 60 240 60C245.6 60 250.6 62.2 254.2 65.8L374.2000000000001 185.8C377.8 189.4 380 194.4 380 200C380 205.6 377.8 210.6 374.2000000000001 214.2z" />
    <glyph glyph-name="arrow-top-left"
      unicode="&#xF127;"
      horiz-adv-x="400" d="M354.2000000000001 74.2000000000001L108.2 320H260C271 320 280 329 280 340C280 351 271 360 260 360H60C49 360 40 351 40 340V140C40 129 49 120 60 120S80 129 80 140V291.8L325.8 46C329.4 42.2 334.4 40 340 40C351 40 360 49 360 60C360 65.6 357.8 70.6 354.2000000000001 74.2000000000001z" />
    <glyph glyph-name="arrow-top-right"
      unicode="&#xF128;"
      horiz-adv-x="400" d="M340 360H140C129 360 120 351 120 340C120 329 129 320 140 320H291.8L45.8 74.2000000000001C42.2 70.6 40 65.6 40 60C40 49 49 40 60 40C65.6 40 70.6 42.2 74.2 45.8L320 291.8V140C320 129 329 120 340 120S360 129 360 140V340C360 351 351 360 340 360z" />
    <glyph glyph-name="arrow-up"
      unicode="&#xF129;"
      horiz-adv-x="400" d="M334 254L214 374C210 378 206 380 200 380S190 378 186 374L66 254C62 250 60 246 60 240C60 228 70 220 80 220C86 220 90 222 94 226L180 312V40C180 30 188 20 200 20S220 30 220 40V312L306 226C310 222 314 220 320 220C330 220 340 228 340 240C340 246 338 250 334 254L334 254z" />
    <glyph glyph-name="arrows-horizontal"
      unicode="&#xF12A;"
      horiz-adv-x="400" d="M394 214L294 314C290 318 286 320 280 320C268 320 260 312 260 300C260 294 262 290 266 286L332 220H68L134 286C138 290 140 294 140 300C140 312 132 320 120 320C114 320 110 318 106 314L6 214C2 210 0 206 0 200S2 190 6 186L106 86C110 82 114 80 120 80C132 80 140 88 140 100C140 106 138 110 134 114L68 180H332L266 114C262 110 260 106 260 100C260 88 268 80 280 80C286 80 290 82 294 86L394 186C398 190 400 194 400 200S398 210 394 214L394 214z" />
    <glyph glyph-name="arrows-vertical"
      unicode="&#xF12B;"
      horiz-adv-x="400" d="M300 140C294 140 290 138 286 134L220 68V332L286 266C290 262 294 260 300 260C312 260 320 268 320 280C320 286 318 290 314 294L214 394C210 398 206 400 200 400S190 398 186 394L86 294C82 290 80 286 80 280C80 268 88 260 100 260C106 260 110 262 114 266L180 332V68.0000000000001L114 134.0000000000001C110 138 106 140 100 140C88 140 80 132 80 120C80 114 82 110 86 106L186 6C190 2 194 0 200 0S210 2 214 6L314 106C318 110 320 114 320 120C320 130 312 140 300 140L300 140z" />
    <glyph glyph-name="asterisk"
      unicode="&#xF12C;"
      horiz-adv-x="400" d="M370.4 116.6L370.6 117L237.8 200L370.6 283L370.4 283.4C376 286.8 380 292.8 380 300C380 311 371 320 360 320C356 320 352.6 318.6 349.6 316.6L349.4 317L220 236V380C220 391 211 400 200 400S180 391 180 380V236L50.6 317L50.4 316.6C47.4 318.6 44 320 40 320C29 320 20 311 20 300C20 292.8 24 286.8 29.6 283.4L29.4 283L162.2 200L29.4 117L29.6 116.6C24 113.2 20 107.2 20 100C20 89 29 80 40 80C44 80 47.4 81.4 50.4 83.4L50.6 83L180 164V20C180 9 189 0 200 0S220 9 220 20V164L349.4 83.2L349.6 83.6C352.6 81.4 356 80 360 80C371 80 380 89 380 100C380 107.2 376 113.2 370.4 116.6z" />
    <glyph glyph-name="at"
      unicode="&#xF331;"
      horiz-adv-x="400" d="M245.96 263.64C235.54 266.4 224.4 267.78 212.52 267.78C191.38 267.78 174.9 260.88 163.08 247.06C151.3 233.24 145.4 214.46 145.4 190.72C145.4 152.84 160.5 133.88 190.72 133.88C222.58 133.88 240 157.72 243 205.36L245.96 263.64zM376.84 315.48C392.2800000000001 288.4 400 257.16 400 221.68C400 198.42 396.28 177.2 388.88 157.9C381.4 138.64 371 123.64 357.5 112.9C344.06 102.2 328.5 96.84 310.84 96.84C297.82 96.84 286.48 100.24 276.92 107.08C267.3400000000001 113.9 260.9 123.18 257.58 134.88H254.62C246.52 122.18 236.54 112.68 224.66 106.34C212.74 99.98 199.38 96.84 184.52 96.84C157.62 96.84 136.42 105.34 121.02 122.42C105.54 139.5 97.84 162.58 97.84 191.68C97.84 225.2 108.08 252.4 128.58 273.28C149 294.14 176.5 304.62 211.02 304.62C223.58 304.62 237.46 303.52 252.74 301.3400000000001C268.02 299.14 281.6 296.1 293.48 292.18L288.04 178.78V172.9C288.04 146.9 296.64 133.88 313.82 133.88C326.86 133.88 337.2 142.16 344.88 158.78C352.56 175.36 356.42 196.5 356.42 222.2C356.42 250 350.6 274.42 339.06 295.48C327.5200000000001 316.54 311.1 332.74 289.8 344.14C268.5 355.52 244.06 361.2 216.46 361.2C181.32 361.2 150.72 354.06 124.7 339.76C98.7 325.44 78.86 304.9600000000001 65.14 278.38C51.42 251.84 44.6 220.94 44.6 185.84C44.6 138.68 57.38 102.4 83 77.08C108.58 51.68 145.3 39.04 193.18 39.04C229.7 39.04 267.76 46.34 307.38 60.96V20.94C272.7 6.98 234.98 0 194.18 0C133.06 0 85.44 16.22 51.3 48.64C17.1 81.1 0 126.34 0 184.38C0 226.82 9.24 264.6 27.76 297.68C46.22 330.74 71.88 356.06 104.66 373.64C137.42 391.2 174.54 400 215.98 400C251.8 400 283.74 392.6600000000001 311.7000000000001 378.04C339.7 363.4 361.4 342.54 376.84 315.48V315.48z" />
    <glyph glyph-name="automatic-updates"
      unicode="&#xF12D;"
      horiz-adv-x="400" d="M200 40C111.6 40 40 111.6 40 200C40 250.4 63.6 295.2 100 324.4V300C100 289 109 280 120 280S140 289 140 300V380C140 391 131 400 120 400H40C29 400 20 391 20 380S29 360 40 360H81.2C32.2 323.6 0 265.8 0 200C0 89.6 89.6 0 200 0C211 0 220 9 220 20S211 40 200 40zM200 360C232.8 360 263 350.2 288.4 333.2L317 361.8C284.2000000000001 385.8 243.8 400 200 400C189 400 180 391 180 380C180 369 189 360 200 360zM400 200C400 222.6 396 244.2 389.2000000000001 264.4L356.8 232C358.8 221.6 360 211 360 200C360 149.6 336.4 104.8 300 75.6V100C300 111 291 120 280 120S260 111 260 100V20C260 9 269 0 280 0H360C371 0 380 9 380 20S371 40 360 40H318.8C367.8 76.4 400 134.2000000000001 400 200zM400 340C400 351 391 360 380 360C374.4 360 369.4 357.8 365.8 354.2L240 228.2L194.2 274.2C190.6 277.8 185.6 280 180 280C169 280 160 271 160 260C160 254.4 162.2 249.4 165.8 245.8L225.8 185.8C229.4 182.2 234.4 180 240 180S250.6 182.2 254.2 185.8L394.2000000000001 325.8C397.8 329.4 400 334.4 400 340z" />
    <glyph glyph-name="axle"
      unicode="&#xF338;"
      horiz-adv-x="400" d="M40 100H80V90C80 84.478 84.4772 80 90 80C95.5228 80 100 84.478 100 90V310C100 315.5228 95.5228 320 90 320C84.4772 320 80 315.5228 80 310V300H40V100zM360 300L320 300L320 310C320 315.5228 315.522 320 310 320C304.478 320 300 315.5228 300 310L300 90C300 84.478 304.478 80 310 80C315.522 80 320 84.478 320 90L320 100L360 100L360 300zM100 240L135.777 222.1114C138.5542 220.723 141.6164 220 144.7214 220H255.278C258.384 220 261.4460000000001 220.723 264.222 222.1114L300 240V160L264.222 177.888C261.4460000000001 179.278 258.384 180 255.278 180H144.7214C141.6164 180 138.5542 179.278 135.777 177.888L100 160V240zM0 220H40V180H0V220zM0 240H20V160H0V240zM380 240H400V160H380V240zM400 180L360 180L360 220L400 220L400 180zM160 220C160 231.0456 168.9544 240 180 240H220C231.046 240 240 231.0456 240 220V180C240 168.954 231.046 160 220 160H180C168.9544 160 160 168.954 160 180V220z" />
    <glyph glyph-name="backlink"
      unicode="&#xF12E;"
      horiz-adv-x="400" d="M367.7420080000001 4.194092L365.857862 5.8578640000001L279.999998 91.7000000000001L279.999998 40C279.999998 28.954306 271.0456920000001 20 259.999998 20C248.954302 20 239.999998 28.954306 239.999998 40L240.055756 141.50477L240.055756 141.50477L240.4048 144.014516L240.4048 144.014516L240.99476 146.24285L240.99476 146.24285L241.873464 148.46443L241.873464 148.46443L242.919906 150.414176L242.919906 150.414176L244.258552 152.340446L244.258552 152.340446L245.858216 154.142816L245.858216 154.142816C246.565744 154.850016 247.313486 155.49374 248.093866 156.073308L250.318756 157.506576L250.318756 157.506576L252.573278 158.57549L252.573278 158.57549L254.680138 159.283098L254.680138 159.283098L257.667576 159.865446L257.667576 159.865446L259.999998 160L359.999998 160C371.0456920000001 160 379.999998 151.045696 379.999998 140C379.999998 128.954306 371.0456920000001 120 359.999998 120L308.299998 120L394.142134 34.1421359999999C401.95262 26.33165 401.95262 13.66835 394.142134 5.8578640000001C386.932454 -1.351814 375.5878340000001 -1.906406 367.7420080000001 4.194092zM140.716662 217.284882L51.7157288 128.284272L49.3790738 125.739976C36.1380284 110.024228 36.9169134 86.514544 51.7157288 71.715728C66.514544 56.916914 90.0242272 56.138028 105.7399758 69.379074L108.2842712 71.715728L197.2902504 160.696548C204.054786 135.339858 198.1542358 107.307152 179.588597 86.618918L176.5685424 83.431458L136.5685424 43.431458C105.3265992 12.189514 54.6734008 12.189514 23.4314576 43.431458C-6.76908772 73.632002 -7.77577256 121.971288 20.411403 153.381082L23.4314576 156.568542L63.4314576 196.568542C84.369871 217.506956 114.0272526 224.4124026 140.716662 217.284882zM274.142136 294.1421356C281.351814 286.9324564 281.906406 275.5878352 275.805908 267.7420112L274.142136 265.8578644L134.1421356 125.857864C126.3316498 118.047378 113.6683502 118.047378 105.8578644 125.857864C98.6481852 133.067544 98.0935944 144.412164 104.1940922 152.257988L105.8578644 154.142136L245.857864 294.1421356C253.66835 301.9526214 266.33165 301.9526214 274.142136 294.1421356zM356.568542 376.5685424C386.769088 346.3679972 387.775772 298.0287126 359.588598 266.6189182L356.568542 263.4314576000001L316.5685420000001 223.4314576C295.635388 202.4983036 265.987646 195.591068 239.303452 202.7097496L328.284272 291.7157288L330.620926 294.2600242C343.861972 309.9757728 343.083086 333.485456 328.284272 348.2842712C313.485456 363.0830866 289.975772 363.8619716 274.2600240000001 350.6209262L271.715728 348.2842712L182.715118 259.283338C175.9420936 284.6453164 181.8408552 312.6873770000001 200.411402 333.3810818L203.431458 336.5685424L243.431458 376.5685424C274.6734 407.81048584 325.3266 407.81048584 356.568542 376.5685424z" />
    <glyph glyph-name="backward-ten"
      unicode="&#xF35C;"
      horiz-adv-x="400" d="M195.0718 0C170.7562 0 147.9806 4.62 126.7452 13.86C105.5096 23.1 87.0298 35.582 71.3058 51.306C55.5818 67.03 43.0998 85.51 33.8598 106.746C24.62 127.98 20 150.756 20 175.072C20 180.584 21.8642 185.204 25.5926 188.932C29.321 192.66 33.9408 194.524 39.4524 194.524C44.964 194.524 49.5838 192.66 53.3122 188.932C57.0406 185.204 58.9048 180.584 58.9048 175.072C58.9048 137.14 72.1162 104.962 98.5392 78.54C124.962 52.116 157.1396 38.904 195.0718 38.904C233.004 38.904 265.182 52.116 291.604 78.54C318.028 104.962 331.2380000000001 137.14 331.2380000000001 175.072C331.2380000000001 213.004 318.028 245.1814 291.604 271.6044C265.182 298.0272 233.004 311.2386 195.0718 311.2386H192.1538L208.688 294.704C212.578 290.8136 214.444 286.2746 214.28 281.0874C214.118 275.9 212.254 271.3612 208.688 267.4708C204.798 263.5802 200.178 261.554 194.8286 261.3918C189.4792 261.2298 184.8592 263.094 180.9688 266.9844L130.8788 317.0744C126.9882 320.9648 125.043 325.5038 125.043 330.6910000000001C125.043 335.8784 126.9882 340.4172 130.8788 344.3078L180.9688 394.3977C184.8592 398.288188 189.4792 400.1523772 194.8286 399.9902738C200.178 399.8281704 204.798 397.80188 208.688 393.9114C212.254 390.02092 214.118 385.48202 214.28 380.2947C214.444 375.1074 212.578 370.5684 208.688 366.678L192.1538 350.1434H195.0718C219.388 350.1434 242.162 345.5236 263.398 336.2836C284.634 327.0438 303.114 314.5618 318.838 298.8378C334.562 283.1136 347.044 264.634 356.284 243.3984C365.524 222.1628 370.144 199.388 370.144 175.072C370.144 150.756 365.524 127.98 356.284 106.746C347.044 85.51 334.562 67.03 318.838 51.306C303.114 35.582 284.634 23.1 263.398 13.86C242.162 4.62 219.388 0 195.0718 0zM230 210V150H250V210H230zM220 240C208.954 240 200 231.0456 200 220V140C200 128.954 208.954 120 220 120H260C271.046 120 280 128.954 280 140V220C280 231.0456 271.046 240 260 240H220zM180 220C180 231.0456 171.0456 240 160 240H135C126.7158 240 120 233.2842 120 225C120 216.7158 126.7158 210 135 210H150V135C150 126.716 156.7158 120 165 120C173.2842 120 180 126.716 180 135V220z" />
    <glyph glyph-name="badge"
      unicode="&#xF12F;"
      horiz-adv-x="400" d="M338.8 285.4C335 313.6 351.2000000000001 335.8 366.4 357.2L340.6 387C297.8 364.8 237.6 370.4 200 400C162.4 370.4 102.2 364.8 59.4 387L33.6 357.2C48.8 335.8 65 313.6 61.2 285.4C53.6 228.2 0 181.2 28 118.4C39.2 89.8 64.2 71 96 63.4C135 54.2 184 45.2 200 0C216 45.1999999999999 265 54.2 304 63.4C336 71 360.8 89.8000000000001 372 118.4C400 181.2 346.4 228.2 338.8 285.4z" />
    <glyph glyph-name="ban-circle"
      unicode="&#xF130;"
      horiz-adv-x="400" d="M200 400C89.6 400 0 310.4 0 200C0 89.6 89.6 0 200 0S400 89.6 400 200C400 310.4 310.4 400 200 400zM300 180H100C89 180 80 189 80 200C80 211 89 220 100 220H300C311 220 320 211 320 200C320 189 311 180 300 180z" />
    <glyph glyph-name="bank-account"
      unicode="&#xF131;"
      horiz-adv-x="400" d="M384 239.6L368.4 243.2C360.6 272 344 298.4 321.6 320L331.6 365.6C333.8 374 327.2 381.2 319.4 380C298.2 377.6 279.4 369.2 266 354.8C244.8 363.2 219.2 368 194.8 368C132.4 368 79 338 46.8 293.6C42.2 294.6 37.8 295.8 33.4 295.8C14.4 295.8 0 280.4 0 260C0 245.6 7.8 233.6 19 227.6C17.8 219.2 16.6 209.6 16.6 200C16.6 156.8 34.4 118.4 62.2 88.4L55.6 47.6C53.4 33.2 64.6 20 78 20H92.4C103.6 20 112.4 28.4 114.6 40.4L115.8 50C139.2 39.2 165.8 32 194.8 32C222.6 32 250.4 38.0000000000001 273.8 50L275.0000000000001 40.4C277.2000000000001 28.4 286.2000000000001 20 297.2000000000001 20H311.6C325.0000000000001 20 336 33.2 333.8 47.6L327.2000000000001 87.2C342.8000000000001 102.8 354.0000000000001 122 361.8000000000001 142.4L381.8000000000001 147.2C391.8000000000001 149.6 399.6000000000001 159.2 399.6000000000001 171.2V215.6C401.8 227.6 394 237.2 384 239.6zM300 200C288 200 280 214 280 230S288 260 300 260S320 246 320 230S312 200 300 200zM151 283.4C142 277.2 129.4 279.8 123.4 289C117.2 298 119.8 310.6 129 316.6C175.8 347.8 224.4 347.8 271.2 316.6C280.4000000000001 310.4 282.8 298 276.8 288.8C270.6 279.6 258.2 277.2 249 283.2C215.6 305.6 184.4 305.6 151 283.4z" />
    <glyph glyph-name="barcode"
      unicode="&#xF132;"
      horiz-adv-x="400" d="M120 60.4H160V340.4H120V60.4zM180 60.4H200V340.4H180V60.4zM60 60.4H100V340.4H60V60.4zM0 60.4H40V340.4H0V60.4zM320 60.4H360V340.4H320V60.4zM240 60.4H260V340.4H240V60.4zM380 340.4V60.4H400V340.4H380zM280 60.4H300V340.4H280V60.4z" />
    <glyph glyph-name="binary-number"
      unicode="&#xF357;"
      horiz-adv-x="400" d="M160.2258 290.3846C151.5984 296.7948 140.401 300 126.6336 300C112.8664 300 101.5772 296.7948 92.7662 290.3846C84.1386 284.1576 77.3468 276.0988 72.3906 266.2088C67.6178 256.5018 64.3138 245.7876 62.4782 234.066C60.826 222.3444 60 210.989 60 200C60 189.01 60.826 177.656 62.4782 165.934C64.3138 154.212 67.6178 143.406 72.3906 133.516C77.3468 123.81 84.1386 115.75 92.7662 109.34C101.5772 103.114 112.8664 100 126.6336 100C140.401 100 151.5984 103.114 160.2258 109.34C169.0368 115.75 175.8288 123.81 180.6014 133.516C185.5576 143.406 188.8618 154.212 190.5138 165.934C192.3494 177.656 193.2672 189.01 193.2672 200C193.2672 210.989 192.3494 222.3444 190.5138 234.066C188.8618 245.7876 185.5576 256.5018 180.6014 266.2088C175.8288 276.0988 169.0368 284.1576 160.2258 290.3846zM143.705 131.868C139.116 128.022 133.4254 126.098 126.6336 126.098C119.6582 126.098 113.876 128.022 109.2868 131.868C104.8814 135.898 101.3018 141.208 98.5484 147.802C95.9784 154.578 94.1428 162.454 93.0414 171.428C91.94 180.402 91.3894 189.926 91.3894 200C91.3894 210.0732 91.94 219.5056 93.0414 228.2966C94.1428 237.271 95.9784 245.1466 98.5484 251.923C101.3018 258.6996000000001 104.8814 264.011 109.2868 267.8572000000001C113.876 271.8864 119.6582 273.901 126.6336 273.901C133.4254 273.901 139.116 271.8864 143.705 267.8572000000001C148.2942 264.011 151.8736 258.6996000000001 154.4436 251.923C157.197 245.1466 159.1244 237.271 160.2258 228.2966C161.3272 219.5056 161.8778 210.0732 161.8778 200C161.8778 189.926 161.3272 180.402 160.2258 171.428C159.1244 162.454 157.197 154.578 154.4436 147.802C151.8736 141.208 148.2942 135.898 143.705 131.868zM260.046 268.5714C253.554 267.4286 246.872 266.8572000000001 240 266.8572000000001V241.1428H289.254V100H325.048V300H298.418C297.272 293.9048 294.79 288.762 290.972 284.5714000000001C287.344 280.381 282.858 276.9524 277.514 274.2858C272.358 271.6190000000001 266.536 269.7142 260.046 268.5714z" />
    <glyph glyph-name="blank"
      unicode="&#xF133;"
      horiz-adv-x="400" d="" />
    <glyph glyph-name="blocked-person"
      unicode="&#xF134;"
      horiz-adv-x="400" d="M231 81.6C201.4 94.6 205.4 102.6 204.4 113.4C204.2 114.8 204.2 116.4 204.2 118C214.4 127 222.6 139.4 228 153.6C228 153.6 228.2 154.4 228.4 154.6C229.6 157.6 230.6 161 231.4 164.2C238.2 165.6 242.2 173 243.6 179.8C244.8 182 246.4 186.8 247 192.2C206.6 211.6 178.4 252.4 178.4 300C178.4 306 179.4 311.6 180.2 317.4C173.6 319 166.8 320 160.4 320C144.6 320 126.8 315 114.2 305.4C102 296 92.8 282.8 88.4 268.2C87.4 265 86.6 261.6 86.2 258.2C83.8 246.2 82.8 228 82.8 215.4C82.8 214.8 82.8 214.4 82.8 213.8C78 212 73.8 207.4 73 197.2C72.2 189.4 75.4 182.6 77 179.8C78.6 172.8 82.6 165.4 89.6 164.2C90.4 160.8 91.4 157.6 92.6 154.6C92.6 154.4 92.8 154.2 92.8 154L93 153.8C98.4 139.4 107 126.8 117.4 117.8C117.4 116.4 117.2 115 117.2 113.6C116.2 102.8 119.2 94.8 89.6 81.8C60 68.8 15.4 54.8 6.4 33.8C-3 12.4 0.8 0 0.8 0H319.8C319.8 0 323.4 12.4 314.4 33.4C305.2 54.6 260.6 68.4 231 81.6zM299.4000000000001 400C243.8 400 198.8 355.2 198.8 300S243.8 200 299.4000000000001 200S400 244.8 400 300S355 400 299.4000000000001 400zM238.8 300C238.8 333.2 265.8 360 299.2 360C308.6 360 317.2 357.8 325 354L244.8 274.2C241.2 282.2 238.8 290.8 238.8 300zM299.4000000000001 240C290 240 281.4 242.2 273.6 246L353.8 325.8C357.6 318 359.8 309.4 359.8 300C359.8 266.8 332.6 240 299.4000000000001 240z" />
    <glyph glyph-name="bold"
      unicode="&#xF135;"
      horiz-adv-x="400" d="M286 220C294 236 300 252 300 270C300 320 260 360 210 360H100C88 360 80 352 80 340V80C80 68 88 60 100 60H230C280 60 320 100 320 150C320 178 306 204 286 220zM140 300H210C226 300 240 286 240 270C240 254 226 240 210 240H140V300zM230 120H140V180H230C246 180 260 166 260 150C260 134 246 120 230 120z" />
    <glyph glyph-name="book"
      unicode="&#xF136;"
      horiz-adv-x="400" d="M60 380V20C60 9 69 0 80 0H120V400H80C69 400 60 391 60 380zM340 400H300V240L260 280L220 240V400H140V0H340C351 0 360 9 360 20V380C360 391 351 400 340 400z" />
    <glyph glyph-name="bookmark"
      unicode="&#xF137;"
      horiz-adv-x="400" d="M120 400C109 400 100 391 100 380V310C100 299 100 281 100 270V220C100 209 100 191 100 180V20C100 9 106.4 6.4 114.2 14.2L186 86C193.8 93.8 206.6 93.8 214.2 86L286 14.2C293.6 6.4 300 9 300 20V180C300 191 300 209 300 220V270C300 281 300 299 300 310V380C300 391 291 400 280 400H120z" />
    <glyph glyph-name="box"
      unicode="&#xF138;"
      horiz-adv-x="400" d="M397.8 268.8L397.8 268.8L338 388.8L337.8 388.8C334.4 395.4 327.8 400 320 400H80C72.2 400 65.6 395.4 62.2 388.8L62 388.8L2 268.8L2.2 268.8C1 266.2 0 263.2 0 260V20C0 9 9 0 20 0H380C391 0 400 9 400 20V260C400 263.2 399 266.2 397.8 268.8zM220 360H307.6L347.6 280H220V360zM92.4 360H180V280H52.4L92.4 360zM360 40H40V240H360V40zM160 160H240C251 160 260 169 260 180C260 191 251 200 240 200H160C149 200 140 191 140 180C140 169 149 160 160 160z" />
    <glyph glyph-name="briefcase"
      unicode="&#xF139;"
      horiz-adv-x="400" d="M380 300H300V360C300 371 291 380 280 380H120C109 380 100 371 100 360V300H20C9 300 0 291 0 280V180H80V200H120V180H280V200H320V180H400V280C400 291 391 300 380 300zM260 300H140V340H260V300zM320 140H280V160H120V140H80V160H0V40C0 29 9 20 20 20H380C391 20 400 29 400 40V160H320V140z" />
    <glyph glyph-name="bring-data"
      unicode="&#xF13A;"
      horiz-adv-x="400" d="M360 40C371.0456940000001 40 380 31.045694 380 20C380 8.954306 371.0456940000001 0 360 0L40 0C28.954305 0 20 8.954306 20 20C20 31.045694 28.954305 40 40 40L360 40zM199.9 339.9C210.9 339.9 219.9 330.908991 219.9 319.91998L219.9 319.91998L219.9 128.231668L245.7 154.005894C249.3 157.602298 254.3 159.8001 259.9 159.8001C270.9 159.8001 279.9 150.80909 279.9 139.82008C279.9 134.225674 277.7 129.23067 274.1 125.634266L274.1 125.634266L214.1 65.694206C210.5 62.097802 205.3 59.9 199.9 59.9C194.5 59.9 189.5 62.097802 185.7 65.694206L185.7 65.694206L125.7 125.634266C122.1 129.23067 119.9 134.225674 119.9 139.82008C119.9 150.80909 128.9 159.8001 139.9 159.8001C145.5 159.8001 150.5 157.602298 154.1 154.005894L154.1 154.005894L179.9 128.231668L179.9 319.7201798C179.9 330.7091908 188.9 339.9 199.9 339.9zM320 400C331.0456940000001 400 340 391.045695 340 380C340 368.954305 331.0456940000001 360 320 360C308.9543060000001 360 300 368.954305 300 380C300 391.045695 308.9543060000001 400 320 400zM260 400C271.045694 400 280 391.045695 280 380C280 368.954305 271.045694 360 260 360C248.954306 360 240 368.954305 240 380C240 391.045695 248.954306 400 260 400zM200 400C211.045694 400 220 391.045695 220 380C220 368.954305 211.045694 360 200 360C188.954305 360 180 368.954305 180 380C180 391.045695 188.954305 400 200 400zM140 400C151.045695 400 160 391.045695 160 380C160 368.954305 151.045695 360 140 360C128.954305 360 120 368.954305 120 380C120 391.045695 128.954305 400 140 400zM80 400C91.045695 400 100 391.045695 100 380C100 368.954305 91.045695 360 80 360C68.954305 360 60 368.954305 60 380C60 391.045695 68.954305 400 80 400z" />
    <glyph glyph-name="bring-forward"
      unicode="&#xF354;"
      horiz-adv-x="400" d="M185.8578 394.14214C193.6684 401.952622 206.332 401.952622 214.142 394.14214L294.142 314.1422C301.952 306.3316 301.952 293.6684 294.142 285.8578C286.332 278.0474000000001 273.668 278.0474000000001 265.858 285.8578L220 331.7158V220H380C391.046 220 400 211.0458 400 200C400 188.954 391.046 180 380 180H220V120H380C391.046 120 400 111.046 400 100V40C400 28.954 391.046 20 380 20H20C8.95432 20 0 28.954 0 40V100C0 111.046 8.9543 120 20 120H180V180H20C8.95432 180 0 188.954 0 200C0 211.0458 8.9543 220 20 220H180V331.7158L134.1422 285.8578C126.3316 278.0474000000001 113.6684 278.0474000000001 105.8578 285.8578C98.0474 293.6684 98.0474 306.3316 105.8578 314.1422L185.8578 394.14214z" />
    <glyph glyph-name="bug"
      unicode="&#xF32E;"
      horiz-adv-x="400" d="M120.1256 314.5566C122.4704 357.2762 157.3348 400 200 400C242.666 400 277.53 357.2762 279.874 314.5566C289.688 305.7974 298.054 295.449 304.5660000000001 283.9156L340 299.6642V340C340 351.0456 348.954 360 360 360C371.046 360 380 351.0456 380 340V286.6666C380 278.7628 375.346 271.6004000000001 368.122 268.3904L318.1380000000001 246.1748C319.362 239.3012 320 232.2252 320 225V200H380C391.046 200 400 191.046 400 180C400 168.954 391.046 160 380 160H320V150C320 137.922 318.216 126.26 314.896 115.266L368.122 91.61C375.346 88.4 380 81.238 380 73.334V20C380 8.954 371.046 0 360 0C348.954 0 340 8.954 340 20V60.336L297.06 79.42C275.24 49.468 239.894 30 200 30C160.1062 30 124.7592 49.468 102.9404 79.42L60 60.336V20C60 8.954 51.0456 0 40 0C28.9544 0 20 8.954 20 20V73.334C20 81.238 24.6546 88.4 31.8772 91.61L85.1038 115.266C81.7844 126.26 80 137.922 80 150V160H20C8.9543 160 0 168.954 0 180C0 191.046 8.9543 200 20 200H80V225C80 232.2252 80.6386 239.3012 81.8622 246.1748L31.8772 268.3904C24.6546 271.6004000000001 20 278.7628 20 286.6666V340C20 351.0456 28.9544 360 40 360C51.0456 360 60 351.0456 60 340V299.6642L95.4342 283.9156C101.9464 295.449 110.3116 305.7974 120.1256 314.5566zM120 180V150C120 105.818 155.8172 70 200 70C244.182 70 280 105.818 280 150V180V225C280 269.1828 244.182 305 200 305C155.8172 305 120 269.1828 120 225V180z" />
    <glyph glyph-name="buggy"
      unicode="&#xF13B;"
      horiz-adv-x="400" d="M316.712 379.7268000000001C325.372 381.17018 333.962 376.7962 337.8880000000001 368.9432L387.514 269.693L387.904 269.7768C390.858 270.4094 393.938 269.674 396.286 267.7754C398.636 265.8768 400 263.0186 400 259.9986V169.998C400 164.476 395.522 159.998 390 159.998H311.408C301.376 159.998 292.01 154.986 286.4460000000001 146.64L258.32 104.452C256.466 101.67 253.344 99.998 250 99.998H160C157.3478 99.998 154.8042 101.052 152.929 102.928L104.6446 151.212C99.0186 156.838 91.388 159.998 83.4314 159.998H10C4.47716 159.998 0 164.476 0 169.998V229.9986C0 235.5216 4.47716 239.9986 10 239.9986H26.4592L61.4304 327.4266C64.0256 333.9148 69.8192 338.578 76.712 339.7268000000001L316.712 379.7268000000001zM322.5 310.2778L347.12 261.0372L291.97 249.2194L322.5 310.2778zM290.002 334.7232L258.8060000000001 272.3344L253.756 285.0888L237.254 325.932L290.002 334.7232zM94.3896 302.1212L196.8346 319.1954L216.592 270.2976L234.574 224.8862L204.648 179.998H154.1422L97.071 237.0698C95.1958 238.9452 92.6522 239.9986 90 239.9986H69.5406L94.3896 302.1212zM60 19.998C93.137 19.998 120 46.862 120 79.998C120 113.136 93.137 139.998 60 139.998C26.863 139.998 0 113.136 0 79.998C0 46.862 26.863 19.998 60 19.998zM340 19.998C373.1380000000001 19.998 400 46.862 400 79.998C400 113.136 373.1380000000001 139.998 340 139.998C306.862 139.998 280 113.136 280 79.998C280 46.862 306.862 19.998 340 19.998z" />
    <glyph glyph-name="build"
      unicode="&#xF13C;"
      horiz-adv-x="400" d="M388.6 66.6L186.2 243.8L215.6 275C223.8 283.8 212.6 291 218.6 307C240.2000000000001 362.2 302.4000000000001 366.8 302.4000000000001 366.8S311.4 376.2 319.8 385.2C239.6 420 185.2 386 160.8 364L76.6 275L59.4 256.6C49.8 246.4 49.8 230 59.4 219.8L42 201.4C32.4 211.6 16.8 211.6 7.2 201.4S-2.4 174.8 7.2 164.6L42 127.8C51.6 117.6 67.2 117.6 76.8 127.8C86.4 138 86.4 154.4 76.8 164.6L94.2 183C103.8 172.8 119.4 172.8 129 183L157.2 212.8L333.4000000000001 11.4C348.6000000000001 -3.8 373.4000000000001 -3.8 388.6 11.4C403.8 26.6 403.8 51.4 388.6 66.6z" />
    <glyph glyph-name="bullseye"
      unicode="&#xF359;"
      horiz-adv-x="400" d="M394.142 394.14214C401.952 386.33166 401.952 373.6684 394.142 365.8578L214.142 185.858C206.332 178.048 193.6684 178.048 185.8578 185.858C178.0474 193.668 178.0474 206.3316 185.8578 214.1422L365.858 394.14214C373.668 401.952622 386.332 401.952622 394.142 394.14214zM292.512 377.3636C264.848 391.8233 233.378 400 200 400C89.543 400 0 310.457 0 200C0 89.544 89.543 0 200 0C310.456 0 400 89.544 400 200C400 233.3778 391.824 264.8458 377.3640000000001 292.5104L347.3400000000001 262.485C355.49 243.288 360 222.1706 360 200C360 111.634 288.366 40 200 40C111.6344 40 40 111.634 40 200C40 288.3656 111.6344 360 200 360C222.172 360 243.29 355.4904 262.486 347.3384L292.512 377.3636zM231.084 315.9352C221.17 318.5864000000001 210.75 320 200 320C133.7258 320 80 266.2742 80 200C80 133.726 133.7258 80 200 80C266.274 80 320 133.726 320 200C320 210.7492 318.586 221.1682 315.936 231.0816L279.846 194.992C277.26 153.142 242.5 120 200 120C155.8172 120 120 155.818 120 200C120 242.5016 153.1434 277.2622 194.9946 279.846L231.084 315.9352z" />
    <glyph glyph-name="calculator"
      unicode="&#xF13D;"
      horiz-adv-x="400" d="M320 400H80C69 400 60 391 60 380V20C60 9 69 0 80 0H320C331 0 340 9 340 20V380C340 391 331 400 320 400zM140 40H100V80H140V40zM140 120H100V160H140V120zM140 200H100V240H140V200zM220 40H180V80H220V40zM220 120H180V160H220V120zM220 200H180V240H220V200zM300 40H260V160H300V40zM300 200H260V240H300V200zM300 280H100V360H300V280z" />
    <glyph glyph-name="calendar"
      unicode="&#xF13E;"
      horiz-adv-x="400" d="M300 300C312 300 320 308 320 320L320 360C320 370 312 380 300 380C288 380 280 370 280 360L280 320C280 308 288 300 300 300zM100 300C112 300 120 308 120 320L120 360C120 370 112 380 100 380C88 380 80 370 80 360L80 320C80 308 88 300 100 300zM360 340L340 340L340 320C340 298 322 280 300 280C278 280 260 298 260 320L260 340L140 340L140 320C140 298 122 280 100 280C78 280 60 298 60 320L60 340L40 340C30 340 20 330 20 320L20 40C20 30 30 20 40 20L360 20C370 20 380 30 380 40L380 320C380 330 370 340 360 340zM140 60L60 60L60 140L140 140L140 60zM140 160L60 160L60 240L140 240L140 160zM240 60L160 60L160 140L240 140L240 60zM240 160L160 160L160 240L240 240L240 160zM340 60L260 60L260 140L340 140L340 60zM340 160L260 160L260 240L340 240L340 160z" />
    <glyph glyph-name="camera"
      unicode="&#xF13F;"
      horiz-adv-x="400" d="M200 240C166.8 240 140 213.2 140 180S166.8 120 200 120S260 146.8 260 180S233.2 240 200 240zM380 320H308.2L274 354.2C270.6 357.8 265.6 360 260 360H140C134.4 360 129.4 357.8 125.8 354.2L91.8 320H20C9 320 0 311 0 300V100C0 89 9 80 20 80H102.2C127.4 55.2 162 40 200 40S272.6 55.2 297.8 80H380C391 80 400 89 400 100V300C400 311 391 320 380 320zM80 240H40V280H80V240zM200 80C144.8 80 100 124.8 100 180S144.8 280 200 280S300 235.2 300 180S255.2 80 200 80z" />
    <glyph glyph-name="caret-down"
      unicode="&#xF140;"
      horiz-adv-x="400" d="M320 260C320 271 311 280 300 280H100C89 280 80 271 80 260C80 255.2 82 250.8 84.8 247.4L84.6 247.2L184.6 127.2L184.8 127.4C188.6 123 193.8 120 200 120S211.4 123 215.2 127.4L215.4 127.2L315.4 247.2L315.2 247.4C318 250.8 320 255.2 320 260z" />
    <glyph glyph-name="caret-left"
      unicode="&#xF141;"
      horiz-adv-x="400" d="M260 320C255.2 320 250.8 318 247.4 315.2L247.2 315.4L127.2 215.4L127.4 215.2C123 211.4 120 206.2 120 200C120 193.8 123 188.6 127.4 184.8L127.2 184.6L247.2 84.6L247.4 84.8C250.8 82 255.2 80 260 80C271 80 280 89 280 100V300C280 311 271 320 260 320z" />
    <glyph glyph-name="caret-right"
      unicode="&#xF142;"
      horiz-adv-x="400" d="M280 200C280 206.2 277 211.4 272.6 215.2L272.8 215.4L152.8 315.4L152.6 315.2C149.2 318 144.8 320 140 320C129 320 120 311 120 300V100C120 89 129 80 140 80C144.8 80 149.2 82 152.6 84.8L152.8 84.6L272.8 184.6L272.6 184.8C277 188.6 280 193.8 280 200z" />
    <glyph glyph-name="caret-up"
      unicode="&#xF143;"
      horiz-adv-x="400" d="M315.2 152.6L315.4 152.8L215.4 272.8L215.2 272.6C211.4 277 206.2 280 200 280S188.6 277 184.8 272.6L184.6 272.8L84.6 152.8L84.8 152.6C82 149.2 80 144.8 80 140C80 129 89 120 100 120H300C311 120 320 129 320 140C320 144.8 318 149.2 315.2 152.6z" />
    <glyph glyph-name="cargo-ship"
      unicode="&#xF144;"
      horiz-adv-x="400" d="M250 375H330C341.046 375 350 366.0456 350 355V300H250V375zM55.0002 300C52.2388 300 50.0002 297.7614 50.0002 295V175H17.66254C9.88958 175 5.08846 166.52 9.08762 159.856L42.5224 104.13C45.9314 98.448 50.1988 93.46 55.1028 89.292C45.9634 88.166 35.9438 87.5 25.0002 87.5C18.09666 87.5 12.50022 81.904 12.50022 75C12.50022 68.096 18.09666 62.5 25.0002 62.5C76.666 62.5 110.3582 76.086 129.0324 85.414C142.7808 76.096 166.6568 62.5 200 62.5C233.01 62.5 256.74 75.826 270.552 85.134L270.66 85.076C275.544 82.458 282.674 79.076 292.046 75.728C310.812 69.026 338.48 62.5 375 62.5C381.904 62.5 387.5 68.096 387.5 75C387.5 81.904 381.904 87.5 375 87.5C368.624 87.5 362.56 87.716 356.81 88.108C364.764 94.456 371.14 102.85 375.088 112.716L394.516 161.286C397.142 167.854 392.3040000000001 175 385.23 175H100.0002V295C100.0002 297.7614 97.7616 300 95.0002 300H55.0002zM124.0974 61.018C128.2904 63.264 133.395 62.936 137.2656 60.172C148.6396 52.048 169.194 37.5 200 37.5C230.806 37.5 251.36 52.048 262.734 60.172C267.064 63.264 272.874 63.276 277.216 60.208L277.366 60.106C277.532 59.994 278.266 59.526 278.266 59.526C279.132 58.984 280.532 58.148 282.466 57.112C286.33 55.042 292.326 52.174 300.454 49.272C316.69 43.474 341.52 37.5 375 37.5C381.904 37.5 387.5 31.904 387.5 25C387.5 18.096 381.904 12.5 375 12.5C338.48 12.5 310.812 19.026 292.046 25.728C282.674 29.076 275.544 32.458 270.66 35.076L270.552 35.134C256.74 25.826 233.01 12.5 200 12.5C166.6568 12.5 142.7808 26.096 129.0324 35.414C110.3582 26.086 76.666 12.5 25.0002 12.5C18.09666 12.5 12.50022 18.096 12.50022 25C12.50022 31.904 18.09666 37.5 25.0002 37.5C78.2168 37.5 109.5892 53.246 124.0974 61.018zM350 275H250V200H330C341.046 200 350 208.9542 350 220V275zM125.0002 355C125.0002 366.0456 133.9546 375 145.0002 375H225V300H125.0002V355zM225 275H125.0002V220C125.0002 208.9544 133.9546 200 145.0002 200H225V275z" />
    <glyph glyph-name="cell-tower"
      unicode="&#xF145;"
      horiz-adv-x="400" d="M230 233.6C236.2 240.6 240.2 249.8 240.2 260C240.2 282 222.2 300 200.2 300S160.2 282 160.2 260C160.2 249.8 164.2 240.6 170.4 233.6L101.2 26.2C97.8 15.8 103.4 4.4 113.8 0.9999999999999S135.6 3.1999999999999 139 13.5999999999999L167.8 100H232.4000000000001L261.2 13.6C264.6 3.2 276 -2.6 286.4 1S302.6 15.8 299 26.2L230 233.6zM219 140H181.2L200.2 196.8L219 140zM106.2 185.4C114.2 177.8 126.8 178.2 134.4 186.2C142 194.2 141.6 206.8 133.6 214.4C105.6 241 108 281.4 133.4 305.2C141.4 312.8 142 325.4 134.4 333.4C127.2 341.6 114.4 342 106.4 334.6C64.6 295.6 60.8 228.6 106.2 185.4zM92 156C60 178 40 220 40 260C40 302 58 338 92 364C102 370 102 384 96 392C90 402 76 402 68 396C24 362 -2 316 0 260C2 206 28 154 68 124C72 122 76 120 80 120C86 120 92 122 96 128C104 138 102 150 92 156zM265.4 186.2C273 178.2 285.6 177.8 293.6 185.4C339 228.6 335.2 295.6 293.4 334.6C285.4 342.2000000000001 272.6 341.6 265.2 333.6C257.6 325.6 258.2 312.8 266.2 305.4000000000001C291.8 281.6 294 241.2 266 214.6C258.2 206.8 257.8 194.2 265.4 186.2zM332 396C324.0000000000001 402 310.0000000000001 402 304 392C298 384 298 370 308 364C342 338 360 302 360 260C360 220 340 178 308 156C298 150 296 138 304 128C308 122 314 120 320 120C324 120 328 122 332 124C374.0000000000001 154 400 206 400 260C401.8 316 376 362 332 396z" />
    <glyph glyph-name="changes"
      unicode="&#xF146;"
      horiz-adv-x="400" d="M360 80H40C18 80 0 62 0 40C0 18 18 0 40 0H360C382 0 400 18 400 40C400 62 382 80 360 80zM60 300C65.6 300 70.6 302.2 74.2 305.8L100 331.8V140C100 129 109 120 120 120S140 129 140 140V331.8L165.8 306C169.4 302.2 174.4 300 180 300C191 300 200 309 200 320C200 325.6 197.8 330.6 194.2 334.2L134.2 394.2C130.6 397.8 125.6 400 120 400S109.4 397.8 105.8 394.2L45.8 334.2C42.2 330.6 40 325.6 40 320C40 309 49 300 60 300zM205.8 185.8L265.8 125.8C269.4000000000001 122.2 274.4000000000001 120 280 120S290.6 122.2 294.2000000000001 125.8L354.2000000000001 185.8C357.8 189.4 360 194.4 360 200C360 211 351 220 340 220C334.4 220 329.4 217.8 325.8 214.2L300 188.2V380C300 391 291 400 280 400S260 391 260 380V188.2L234.2 214C230.6 217.8 225.6 220 220 220C209 220 200 211 200 200C200 194.4 202.2 189.4 205.8 185.8z" />
    <glyph glyph-name="chart"
      unicode="&#xF147;"
      horiz-adv-x="400" d="M140 180V20C140 9 149 0 160 0H240C251 0 260 9 260 20V180L220 140L140 180zM0 20C0 9 9 0 20 0H100C111 0 120 9 120 20V180L0 120V20zM340 260L280 200V20C280 9 289 0 300 0H380C391 0 400 9 400 20V225.2C394.8 222.2 388.4000000000001 220 380 220C341.6 220 340 260 340 260zM380 380H300C289 380 280 371 280 360C280 349 289 340 300 340H331.8L216 224.4L149 257.8L149 257.6C146.2 259 143.2 260 140 260S133.8 259 131.2 257.8L131.2 258L11.2 198L11.2 197.8C4.6 194.4 0 187.8 0 180C0 169 9 160 20 160C23.2 160 26.2 161 28.8 162.2L28.8 162L140 217.6L211 182L211 182.2C213.8 181 216.8 180 220 180C225.6 180 230.6 182.2 234.2 185.8L360 311.8V280C360 269 369 260 380 260S400 269 400 280V360C400 371 391 380 380 380z" />
    <glyph glyph-name="chat"
      unicode="&#xF148;"
      horiz-adv-x="400" d="M380 400H140C129 400 120 391 120 380V180C120 169 129 160 140 160H251.8L326 85.8C329.4 82.2 334.4 80 340 80C351 80 360 89 360 100V160H380C391 160 400 169 400 180V380C400 391 391 400 380 400zM140 140C118 140 100 158 100 180V320H20C9 320 0 311 0 300V100C0 89 9 80 20 80H40V20C40 9 49 0 60 0C65.6 0 70.6 2.2 74.2 5.8L148.2 80H260C271 80 280 89 280 100V103.4L243.4 140H140z" />
    <glyph glyph-name="chevron-backward"
      unicode="&#xF149;"
      horiz-adv-x="400" d="M168.2 200L274 305.8C277.8 309.4 280 314.4 280 320C280 331 271 340 260 340C254.4 340 249.4 337.8 245.8 334.2L140 228.2V320C140 331 131 340 120 340S100 331 100 320V80C100 69 109 60 120 60S140 69 140 80V171.8L245.8 66C249.4 62.2 254.4 60 260 60C271 60 280 69 280 80C280 85.6 277.8 90.6 274.2000000000001 94.2000000000001L168.2 200z" />
    <glyph glyph-name="chevron-down"
      unicode="&#xF14A;"
      horiz-adv-x="400" d="M320 280C314.4000000000001 280 309.4000000000001 277.8 305.8 274.2L200 168.2L94.2 274.2C90.6 277.8 85.6 280 80 280C69 280 60 271 60 260C60 254.4 62.2 249.4 65.8 245.8L185.8 125.8C189.4 122.2 194.4 120 200 120S210.6 122.2 214.2 125.8L334.2000000000001 245.8C337.8 249.4 340 254.4 340 260C340 271 331 280 320 280z" />
    <glyph glyph-name="chevron-forward"
      unicode="&#xF14B;"
      horiz-adv-x="400" d="M260 340C249 340 240 331 240 320V228.2L134.2 334.2C130.6 337.8 125.6 340 120 340C109 340 100 331 100 320C100 314.4 102.2 309.4 105.8 305.8L211.8 200L106 94.2000000000001C102.2 90.6 100 85.6 100 80C100 69 109 60 120 60C125.6 60 130.6 62.2 134.2 65.8L240 171.8V80C240 69 249 60 260 60S280 69 280 80V320C280 331 271 340 260 340z" />
    <glyph glyph-name="chevron-left"
      unicode="&#xF14C;"
      horiz-adv-x="400" d="M168.2 200L274 305.8C277.8 309.4 280 314.4 280 320C280 331 271 340 260 340C254.4 340 249.4 337.8 245.8 334.2L125.8 214.2C122.2 210.6 120 205.6 120 200C120 194.4 122.2 189.4 125.8 185.8L245.8 65.8C249.4 62.2 254.4 60 260 60C271 60 280 69 280 80C280 85.6 277.8 90.6 274.2000000000001 94.2000000000001L168.2 200z" />
    <glyph glyph-name="chevron-right"
      unicode="&#xF14D;"
      horiz-adv-x="400" d="M274.2000000000001 214.2L154.2 334.2000000000001C150.6 337.8 145.6 340 140 340C129 340 120 331 120 320C120 314.4 122.2 309.4 125.8 305.8L231.8 200L126 94.2000000000001C122.2 90.6 120 85.6 120 80C120 69 129 60 140 60C145.6 60 150.6 62.2 154.2 65.8L274.2000000000001 185.8C277.8 189.4 280 194.4 280 200C280 205.6 277.8 210.6 274.2000000000001 214.2z" />
    <glyph glyph-name="chevron-up"
      unicode="&#xF14E;"
      horiz-adv-x="400" d="M334.2000000000001 154.2L214.2 274.2000000000001C210.6 277.8 205.6 280 200 280S189.4 277.8 185.8 274.2L65.8 154.2C62.2 150.6 60 145.6 60 140C60 129 69 120 80 120C85.6 120 90.6 122.2 94.2 125.8L200 231.8L305.8 126C309.4000000000001 122.2 314.4000000000001 120 320 120C331 120 340 129 340 140C340 145.6 337.8 150.6 334.2000000000001 154.2z" />
    <glyph glyph-name="circle-arrow-down"
      unicode="&#xF14F;"
      horiz-adv-x="400" d="M280 200C274.4000000000001 200 269.4000000000001 197.8 265.8 194.2L220 148.2V300C220 311 211 320 200 320S180 311 180 300V148.2L134.2 194C130.6 197.8 125.6 200 120 200C109 200 100 191 100 180C100 174.4 102.2 169.4 105.8 165.8L185.8 85.8C189.4 82.2 194.4 80 200 80S210.6 82.2 214.2 85.8L294.2000000000001 165.8C297.8 169.4 300 174.4 300 180C300 191 291 200 280 200zM200 400C89.6 400 0 310.4 0 200C0 89.6 89.6 0 200 0S400 89.6 400 200C400 310.4 310.4 400 200 400zM200 40C111.6 40 40 111.6 40 200S111.6 360 200 360S360 288.4 360 200S288.4 40 200 40z" />
    <glyph glyph-name="circle-arrow-left"
      unicode="&#xF150;"
      horiz-adv-x="400" d="M300 220H148.2L194 265.8C197.8 269.4 200 274.4 200 280C200 291 191 300 180 300C174.4 300 169.4 297.8 165.8 294.2L85.8 214.2C82.2 210.6 80 205.6 80 200C80 194.4 82.2 189.4 85.8 185.8L165.8 105.8C169.4 102.2 174.4 100 180 100C191 100 200 109 200 120C200 125.6 197.8 130.6 194.2 134.2000000000001L148.2 180H300C311 180 320 189 320 200C320 211 311 220 300 220zM200 400C89.6 400 0 310.4 0 200C0 89.6 89.6 0 200 0S400 89.6 400 200C400 310.4 310.4 400 200 400zM200 40C111.6 40 40 111.6 40 200S111.6 360 200 360S360 288.4 360 200S288.4 40 200 40z" />
    <glyph glyph-name="circle-arrow-right"
      unicode="&#xF151;"
      horiz-adv-x="400" d="M314.2000000000001 214.2L234.2 294.2000000000001C230.6 297.8 225.6 300 220 300C209 300 200 291 200 280C200 274.4 202.2 269.4 205.8 265.8L251.8 220H100C89 220 80 211 80 200C80 189 89 180 100 180H251.8L206 134.2000000000001C202.2 130.6 200 125.6 200 120C200 109 209 100 220 100C225.6 100 230.6 102.2 234.2 105.8L314.2000000000001 185.8C317.8 189.4 320 194.4 320 200C320 205.6 317.8 210.6 314.2000000000001 214.2zM200 400C89.6 400 0 310.4 0 200C0 89.6 89.6 0 200 0S400 89.6 400 200C400 310.4 310.4 400 200 400zM200 40C111.6 40 40 111.6 40 200S111.6 360 200 360S360 288.4 360 200S288.4 40 200 40z" />
    <glyph glyph-name="circle-arrow-up"
      unicode="&#xF152;"
      horiz-adv-x="400" d="M200 400C89.6 400 0 310.4 0 200C0 89.6 89.6 0 200 0S400 89.6 400 200C400 310.4 310.4 400 200 400zM200 40C111.6 40 40 111.6 40 200S111.6 360 200 360S360 288.4 360 200S288.4 40 200 40zM214.2 314.2C210.6 317.8 205.6 320 200 320S189.4 317.8 185.8 314.2L105.8 234.2C102.2 230.6 100 225.6 100 220C100 209 109 200 120 200C125.6 200 130.6 202.2 134.2 205.8L180 251.8V100C180 89 189 80 200 80S220 89 220 100V251.8L265.8 206C269.4000000000001 202.2 274.4000000000001 200 280 200C291 200 300 209 300 220C300 225.6 297.8 230.6 294.2000000000001 234.2L214.2 314.2z" />
    <glyph glyph-name="circle"
      unicode="&#xF153;"
      horiz-adv-x="400" d="M200 400C90 400 0 310 0 200S90 0 200 0S400 90 400 200S310 400 200 400L200 400zM200 40C112 40 40 112 40 200S112 360 200 360S360 288 360 200S288 40 200 40L200 40z" />
    <glyph glyph-name="citation"
      unicode="&#xF154;"
      horiz-adv-x="400" d="M80 380C35.8 380 0 344.2 0 300S35.8 220 80 220C82 220 84 220.2 86 220.4C76.4 173.6 50.6 140 20 140C9 140 0 131 0 120C0 109 9 100 20 100C97.4 100 160 189.6 160 300C160 344.2 124.2 380 80 380zM320 380C275.8 380 240 344.2 240 300S275.8 220 320 220C322 220 324 220.2 326 220.4C316.4 173.6 290.6 140 260 140C249 140 240 131 240 120C240 109 249 100 260 100C337.4000000000001 100 400 189.6 400 300C400 344.2 364.2000000000001 380 320 380z" />
    <glyph glyph-name="clean"
      unicode="&#xF155;"
      horiz-adv-x="400" d="M140 400L100 300L0 260.0385184L100 220L140 120L180 220L280 259.8943316L180 300zM300 200L270 130.07389L200 100.102912L270 70.137224L300 0L330 70.137224L400 100L330 130.07389z" />
    <glyph glyph-name="clip"
      unicode="&#xF156;"
      horiz-adv-x="400" d="M0 380C0 391.0457 8.9543 400 20 400H120C131.0456 400 140 391.0457 140 380C140 368.9544 131.0456 360 120 360H40V280C40 268.9544 31.0456 260 20 260C8.9543 260 0 268.9544 0 280V380zM20 0C8.9543 0 0 8.954 0 20V120C0 131.046 8.9543 140 20 140C31.0456 140 40 131.046 40 120V40H120C131.0456 40 140 31.046 140 20C140 8.954 131.0456 0 120 0H20zM380 0C391.046 0 400 8.954 400 20V120C400 131.046 391.046 140 380 140C368.954 140 360 131.046 360 120V40H280C268.954 40 260 31.046 260 20C260 8.954 268.954 0 280 0H380zM380 400C391.046 400 400 391.0457 400 380V280C400 268.9544 391.046 260 380 260C368.954 260 360 268.9544 360 280V360H280C268.954 360 260 368.9544 260 380C260 391.0457 268.954 400 280 400H380zM200 120C244.182 120 280 155.818 280 200C280 244.1828 244.182 280 200 280C155.8172 280 120 244.1828 120 200C120 155.818 155.8172 120 200 120z" />
    <glyph glyph-name="clipboard-file"
      unicode="&#xF35B;"
      horiz-adv-x="400" d="M140 220C140 231.0456 148.9544 240 160 240H291.716C297.0200000000001 240 302.108 237.8928 305.858 234.1422L334.142 205.8578C337.892 202.1072 340 197.02 340 191.716V20C340 8.954 331.046 0 320 0H160C148.9544 0 140 8.954 140 20V220zM190 180C184.4772 180 180 175.522 180 170C180 164.478 184.4772 160 190 160H290C295.522 160 300 164.478 300 170C300 175.522 295.522 180 290 180H190zM190 120C184.4772 120 180 115.522 180 110C180 104.478 184.4772 100 190 100H290C295.522 100 300 104.478 300 110C300 115.522 295.522 120 290 120H190zM190 60C184.4772 60 180 55.522 180 50C180 44.478 184.4772 40 190 40H290C295.522 40 300 44.478 300 50C300 55.522 295.522 60 290 60H190zM240 361.1428C240 371.8286 231 380.57142 220 380.57142H204.4C197.4 392.22858 184.8 400 170 400C155.2 400 142.4 392.22858 135.6 380.57142H120C109 380.57142 100 371.8286 100 361.1428V340H240V361.1428zM260 320H80.7844V360H60C48.9544 360 40 351.0456 40 340V60C40 48.954 48.9544 40 60 40H120V240C120 251.0456 128.9542 260 140 260H300V340C300 351.0456 291.046 360 280 360H260V320z" />
    <glyph glyph-name="clipboard"
      unicode="&#xF157;"
      horiz-adv-x="400" d="M260 360C260 371 251 380 240 380H224.4C217.4 392 204.8 400 190 400S162.4 392 155.6 380H140C129 380 120 371 120 360V320H260V360zM320 360H280V320V300H260H120H100V320V360H60C49 360 40 351 40 340V20C40 9 49 0 60 0H320C331 0 340 9 340 20V340C340 351 331 360 320 360z" />
    <glyph glyph-name="cloud-download"
      unicode="&#xF158;"
      horiz-adv-x="400" d="M300 320C297.6 320 295.2 319.4 292.8 319.2C276.6 366.2 232.4 400 180 400C113.8 400 60 346.2 60 280C60 279 60.2 278.2 60.2 277.2C25.6 268.4 0 237.4 0 200C0 155.8 35.8 120 80 120H95.6C106.6 132.2 122.4 140 140 140V180C140 213.2 166.8 240 200 240S260 213.2 260 180V140C277.6 140 293.2 132.4 304 120.4C357.4000000000001 122.6 400 166.2 400 220C400 275.2 355.2000000000001 320 300 320zM260 100C254.4 100 249.4 97.8 245.8 94.2000000000001L220 68.2V180C220 191 211 200 200 200S180 191 180 180V68.2L154.2 94C150.6 97.8 145.6 100 140 100C129 100 120 91 120 80C120 74.4 122.2 69.4 125.8 65.8L185.8 5.8C189.4 2.2 194.4 0 200 0S210.6 2.2 214.2 5.8L274.2000000000001 65.8C277.8 69.4 280 74.4 280 80C280 91 271 100 260 100z" />
    <glyph glyph-name="cloud-server"
      unicode="&#xF35A;"
      horiz-adv-x="400" d="M180 100H400V20H180V100zM240 60C240 48.954 231.046 40 220 40C208.954 40 200 48.954 200 60C200 71.046 208.954 80 220 80C231.046 80 240 71.046 240 60zM280 80C268.954 80 260 71.046 260 60C260 48.954 268.954 40 280 40H360C371.046 40 380 48.954 380 60C380 71.046 371.046 80 360 80H280zM295.68 299.568C297.12 299.784 298.56 300 300 300C348.352 300 388.724 265.627 397.996 220H180C168.9542 220 160 211.0456 160 200V100H80C35.8 100 0 135.8 0 180C0 217.4 25.6 248.4 60.2 257.2000000000001C60.2 257.7 60.15 258.15 60.1 258.6C60.05 259.05 60 259.5 60 260C60 326.2 113.8 380 180 380C232.4 380 276.6 346.2 292.8 299.2C293.76 299.28 294.7200000000001 299.424 295.68 299.568zM180 200H400V120H180V200zM240 160C240 148.954 231.046 140 220 140C208.954 140 200 148.954 200 160C200 171.046 208.954 180 220 180C231.046 180 240 171.046 240 160zM280 180C268.954 180 260 171.046 260 160C260 148.954 268.954 140 280 140H360C371.046 140 380 148.954 380 160C380 171.046 371.046 180 360 180H280z" />
    <glyph glyph-name="cloud-tick"
      unicode="&#xF34E;"
      horiz-adv-x="400" d="M295.68 319.568C294.7200000000001 319.424 293.76 319.28 292.8 319.2C276.6 366.2 232.4 400 180 400C113.8 400 60 346.2 60 280C60 279.5 60.05 279.05 60.1 278.6C60.15 278.15 60.2 277.7 60.2 277.2C25.6 268.4 0 237.4 0 200C0 155.8 35.8 120 80 120H103.4166C106.3048 128.19 111.0238 135.876 117.5736 142.426C141.005 165.858 178.995 165.858 202.426 142.426L220 124.852L317.574 222.4264C340.1760000000001 245.0286 376.324 245.8284 399.886 224.8258C397.3640000000001 277.7876 353.582 320 300 320C298.56 320 297.12 319.784 295.68 319.568zM234.142 25.858C226.332 18.048 213.668 18.048 205.858 25.858L145.8578 85.858C138.0474 93.668 138.0474 106.332 145.8578 114.142C153.6684 121.952 166.3316 121.952 174.1422 114.142L220 68.284L345.854 194.14C352.412 200.696 362.392 201.7512 370.0460000000001 197.3C371.5100000000001 196.448 372.8880000000001 195.396 374.142 194.142C380.976 187.308 381.83 176.758 376.704 168.996C375.972 167.886 375.118 166.834 374.142 165.858L234.142 25.858z" />
    <glyph glyph-name="cloud-upload"
      unicode="&#xF159;"
      horiz-adv-x="400" d="M214.2 194.2C210.6 197.8 205.6 200 200 200S189.4 197.8 185.8 194.2L125.8 134.2000000000001C122.2 130.6 120 125.6 120 120C120 109 129 100 140 100C145.6 100 150.6 102.2 154.2 105.8L180 131.8V20C180 9 189 0 200 0S220 9 220 20V131.8L245.8 106C249.4 102.2 254.4 100 260 100C271 100 280 109 280 120C280 125.6 277.8 130.6 274.2000000000001 134.2000000000001L214.2 194.2zM300 320C297.6 320 295.2 319.4 292.8 319.2C276.6 366.2 232.4 400 180 400C113.8 400 60 346.2 60 280C60 279 60.2 278.2 60.2 277.2C25.6 268.4 0 237.4 0 200C0 155.8 35.8 120 80 120C80 136.6 86.8 151.6 97.6 162.4L157.6 222.4C168.4 233.2 183.4 240 200 240S231.6 233.2 242.4000000000001 222.4L302.4000000000001 162.4L302.2000000000001 162.2C312.6 151.8 319.2000000000001 137.6 319.6 121.8C365.6 131.2 400 171.6 400 220C400 275.2 355.2000000000001 320 300 320z" />
    <glyph glyph-name="cloud"
      unicode="&#xF15A;"
      horiz-adv-x="400" d="M300 260C297.6 260 295.2 259.4 292.8 259.2C276.6 306.2 232.4 340 180 340C113.8 340 60 286.2 60 220C60 219 60.2 218.2 60.2 217.2C25.6 208.4 0 177.4 0 140C0 95.8 35.8 60 80 60H300C355.2 60 400 104.8 400 160S355.2000000000001 260 300 260z" />
    <glyph glyph-name="code-block"
      unicode="&#xF15B;"
      horiz-adv-x="400" d="M380 300H340V340C340 351 331 360 320 360H240C229 360 220 351 220 340V300H180V340C180 351 171 360 160 360H80C69 360 60 351 60 340V300H20C9 300 0 291 0 280V40C0 29 9 20 20 20H380C391 20 400 29 400 40V280C400 291 391 300 380 300zM174.2 94.2000000000001C177.8 90.6 180 85.6 180 80C180 69 171 60 160 60C154.4 60 149.4 62.2 145.8 65.8L65.8 145.8C62.2 149.4 60 154.4 60 160S62.2 170.6 65.8 174.2L145.8 254.2C149.4 257.8 154.4 260 160 260C171 260 180 251 180 240C180 234.4 177.8 229.4 174.2 225.8L108.2 160L174.2 94.2000000000001zM334.2000000000001 145.8L254.2 65.8C250.6 62.2 245.6 60 240 60C229 60 220 69 220 80C220 85.6 222.2 90.6 225.8 94.2000000000001L291.8 160L226 225.8C222.2 229.4 220 234.4 220 240C220 251 229 260 240 260C245.6 260 250.6 257.8 254.2 254.2L334.2000000000001 174.2C337.8 170.6 340 165.6 340 160S337.8 149.4 334.2000000000001 145.8z" />
    <glyph glyph-name="code"
      unicode="&#xF15C;"
      horiz-adv-x="400" d="M120 280C120 291 111 300 100 300C94.4 300 89.4 297.8 85.8 294.2L5.8 214.2C2.2 210.6 0 205.6 0 200C0 194.4 2.2 189.4 5.8 185.8L85.8 105.8C89.4 102.2 94.4 100 100 100C111 100 120 109 120 120C120 125.6 117.8 130.6 114.2 134.2000000000001L48.2 200L114 265.8C117.8 269.4 120 274.4 120 280zM240 360C230.8 360 223.4 353.8 221 345.4L141 65.4C140.6 63.6 140 62 140 60C140 49 149 40 160 40C169.2 40 176.6 46.2 179 54.6L259 334.6C259.4000000000001 336.4 260 338 260 340C260 351 251 360 240 360zM394.2000000000001 214.2L314.2000000000001 294.2000000000001C310.6 297.8 305.6 300 300 300C289 300 280 291 280 280C280 274.4 282.2 269.4 285.8 265.8L351.8 200L286 134.2000000000001C282.2 130.6 280 125.6 280 120C280 109 289 100 300 100C305.6 100 310.6 102.2 314.2000000000001 105.8L394.2000000000001 185.8C397.8 189.4 400 194.4 400 200C400 205.6 397.8 210.6 394.2000000000001 214.2z" />
    <glyph glyph-name="cog"
      unicode="&#xF15D;"
      horiz-adv-x="400" d="M380 240H333.8C331 249.2 327.2000000000001 257.8 322.6 266L356.6 300C364.4000000000001 307.8 364.4000000000001 320.4 356.6 328.2L328.4000000000001 356.4C320.6 364.2 308.0000000000001 364.2 300.2000000000001 356.4L266.2000000000001 322.4C258.0000000000001 326.8 249.4000000000001 330.6 240.2000000000001 333.4V380C240.2000000000001 391 231.2000000000001 400 220.2000000000001 400H180C169 400 160 391 160 380V333.4C150.4 330.6 141.2 326.6 132.6 321.8L100 354.4C92.6 361.8 80.4 361.8 72.8 354.4L45.6 327.2C38.2 319.6 38.2 307.4 45.6 300L78 267.6C73.2 258.8 69.2 249.8 66.2 240H20C9 240 0 231 0 220V180C0 169 9 160 20 160H66.2C69 150.8 72.8 142.2 77.4 134L43.4 100C35.6 92.2 35.6 79.6 43.4 71.8L71.6 43.6C79.4 35.8 92 35.8 99.8 43.6L133.8 77.6C142 73.2 150.6 69.4 159.8 66.6V20C159.8 9 168.8 0 179.8 0H219.8C230.8 0 239.8 9 239.8 20V66.6C249.4 69.4 258.6 73.6 267.2 78.4L300 45.6C307.4 38.2 319.6 38.2 327.2 45.6L354.4 72.8C361.8 80.2 361.8 92.4 354.4 100L322 132.4C326.8 141 331 150.2000000000001 334 160H380C391 160 400 169 400 180V220C400 231 391 240 380 240zM200 120C155.8 120 120 155.8 120 200C120 244.2 155.8 280 200 280S280 244.2 280 200C280 155.8 244.2 120 200 120z" />
    <glyph glyph-name="collapse-all"
      unicode="&#xF15E;"
      horiz-adv-x="400" d="M185.8 225.8C189.4 222.2 194.4 220 200 220S210.6 222.2 214.2 225.8L334.2000000000001 345.8C337.8 349.4 340 354.4 340 360C340 371 331 380 320 380C314.4000000000001 380 309.4000000000001 377.8 305.8 374.2L200 268.2L94.2 374.2C90.6 377.8 85.6 380 80 380C69 380 60 371 60 360C60 354.4 62.2 349.4 65.8 345.8L185.8 225.8zM214.2 174.2C210.6 177.8 205.6 180 200 180S189.4 177.8 185.8 174.2L65.8 54.2C62.2 50.6 60 45.6 60 40C60 29 69 20 80 20C85.6 20 90.6 22.2 94.2 25.8L200 131.8L305.8 26C309.4000000000001 22.2 314.4000000000001 20 320 20C331 20 340 29 340 40C340 45.6 337.8 50.6 334.2000000000001 54.2L214.2 174.2z" />
    <glyph glyph-name="color-fill"
      unicode="&#xF328;"
      horiz-adv-x="400" d="M43.7636 220L283.432 220L160 343.4314L68.2842 251.7158C56.2248 239.6562 48.103 230.3902 43.7636 220zM160 400L131.7158 371.7158L40 280C20 260 0 237.8048 0 200C0 160 20 140 40 120L60 100C80 80 100 60 140 60C180.1766 60 198.3614 78.268 217.352 97.344L217.352 97.344L220 100L311.716 191.716L340 220L311.716 248.2842L188.2842 371.7158L160 400zM370 130L340 180L310 130C303.646 119.41 300 110 300 100C300 80 310 60 340 60C370 60 380 80 380 100C380 110 376.354 119.41 370 130zM20 40C8.9543 40 0 31.046 0 20C0 8.954 8.9543 0 20 0H380C391.046 0 400 8.954 400 20C400 31.046 391.046 40 380 40H20z" />
    <glyph glyph-name="column-layout"
      unicode="&#xF15F;"
      horiz-adv-x="400" d="M380 380H20C9 380 0 371 0 360V40C0 29 9 20 20 20H380C391 20 400 29 400 40V360C400 371 391 380 380 380zM100 60H40V340H100V60zM180 60H120V340H180V60zM360 60H200V340H360V60z" />
    <glyph glyph-name="comment"
      unicode="&#xF160;"
      horiz-adv-x="400" d="M380 380H20C9 380 0 371 0 360V120C0 109 9 100 20 100H80V20C80 9 89 0 100 0C105.6 0 110.6 2.2 114.2 5.8L208.2 100H380C391 100 400 109 400 120V360C400 371 391 380 380 380zM80 200C58 200 40 218 40 240C40 262 58 280 80 280S120 262 120 240C120 218 102 200 80 200zM200 200C178 200 160 218 160 240C160 262 178 280 200 280S240 262 240 240C240 218 222 200 200 200zM320 200C298 200 280 218 280 240C280 262 298 280 320 280S360 262 360 240C360 218 342 200 320 200z" />
    <glyph glyph-name="comparison"
      unicode="&#xF161;"
      horiz-adv-x="400" d="M120 240H20C9 240 0 231 0 220V180C0 169 9 160 20 160H120C131 160 140 169 140 180V220C140 231 131 240 120 240zM380 360H280C269 360 260 351 260 340V300C260 289 269 280 280 280H380C391 280 400 289 400 300V340C400 351 391 360 380 360zM380 300H280V340H380V300zM120 120H20C9 120 0 111 0 100V60C0 49 9 40 20 40H120C131 40 140 49 140 60V100C140 111 131 120 120 120zM120 360H20C9 360 0 351 0 340V300C0 289 9 280 20 280H120C131 280 140 289 140 300V340C140 351 131 360 120 360zM200 400C189 400 180 391 180 380V20C180 9 189 0 200 0S220 9 220 20V380C220 391 211 400 200 400zM380 120H280C269 120 260 111 260 100V60C260 49 269 40 280 40H380C391 40 400 49 400 60V100C400 111 391 120 380 120zM380 60H280V100H380V60zM380 240H280C269 240 260 231 260 220V180C260 169 269 160 280 160H380C391 160 400 169 400 180V220C400 231 391 240 380 240zM380 180H280V220H380V180z" />
    <glyph glyph-name="compass"
      unicode="&#xF162;"
      horiz-adv-x="400" d="M300 200C300 197.2 299.4000000000001 194.4 298.2 192L298.2 192L218.4 12.4C218.4 12.4 218.4 12.4 218.4 12.4L218.2 11.9999999999999L218.2 11.9999999999999C215.2 5 208.2 0 200 0S184.8 5 181.8 12L181.8 12L181.6 12.4C181.6 12.4 181.6 12.4 181.6 12.4L101.8 192L101.8 192C100.6 194.4 100 197.2 100 200S100.6 205.6 101.8 208L101.8 208L181.6 387.6C181.6 387.6 181.6 387.6 181.6 387.6L181.8 388L181.8 388C184.8 395 191.8 400 200 400S215.2 395 218.2 388L218.2 388L218.4 387.6C218.4 387.6 218.4 387.6 218.4 387.6L298.2 208L298.2 208C299.4000000000001 205.6 300 202.8 300 200zM200 330.8L141.8 200H258L200 330.8z" />
    <glyph glyph-name="compressed"
      unicode="&#xF163;"
      horiz-adv-x="400" d="M397.8 268.8L397.8 268.8L338 388.8L337.8 388.8C334.4 395.4 327.8 400 320 400H80C72.2 400 65.6 395.4 62.2 388.8L62 388.8L2 268.8L2.2 268.8C1 266.2 0 263.2 0 260V20C0 9 9 0 20 0H380C391 0 400 9 400 20V260C400 263.2 399 266.2 397.8 268.8zM220 360H307.6L347.6 280H220V360zM92.4 360H180V280H52.4L92.4 360zM360 40H40V240H180V148.2L134.2 194C130.6 197.8 125.6 200 120 200C109 200 100 191 100 180C100 174.4 102.2 169.4 105.8 165.8L185.8 85.8C189.4 82.2 194.4 80 200 80S210.6 82.2 214.2 85.8L294.2000000000001 165.8C297.8 169.4 300 174.4 300 180C300 191 291 200 280 200C274.4000000000001 200 269.4000000000001 197.8 265.8 194.2L220 148.2V240H360V40z" />
    <glyph glyph-name="confirm"
      unicode="&#xF164;"
      horiz-adv-x="400" d="M194.2 294.2C190.6 297.8 185.6 300 180 300C169 300 160 291 160 280C160 274.4 162.2 269.4 165.8 265.8L225.8 205.8C229.4 202.2 234.4 200 240 200S250.6 202.2 254.2 205.8L394.2000000000001 345.8C397.8 349.4 400 354.4 400 360C400 371 391 380 380 380C374.4 380 369.4 377.8 365.8 374.2L240 248.2L194.2 294.2zM352.8 247.8C357.4000000000001 232.8 360 216.6 360 200C360 111.6 288.4 40 200 40S40 111.6 40 200S111.6 360 200 360C227.6 360 253.4 353 276 340.8L305.2000000000001 370C274.6 388.8 238.6 400 200 400C89.6 400 0 310.4 0 200C0 89.6 89.6 0 200 0S400 89.6 400 200C400 228 394.2000000000001 254.6 383.8 279L352.8 247.8z" />
    <glyph glyph-name="console"
      unicode="&#xF165;"
      horiz-adv-x="400" d="M380 20H20C9 20 0 29 0 40V360C0 371 9 380 20 380H380C391 380 400 371 400 360V40C400 29 391 20 380 20zM360 280H40V60H360V280zM80 240C85.6 240 90.6 237.8 94.2 234.2L94.2 234.2L134.2 194.2L134.2 194.2C137.8 190.6 140 185.6 140 180S137.8 169.4 134.2 165.8L134.2 165.8L94.2 125.8L94.2 125.8C90.6 122.2 85.6 120 80 120C69 120 60 129 60 140C60 145.6 62.2 150.6 65.8 154.2L65.8 154.2L91.8 180L65.8 205.8L65.8 205.8C62.2 209.4 60 214.4 60 220C60 231 69 240 80 240zM180 160H240C251 160 260 151 260 140C260 129 251 120 240 120H180C169 120 160 129 160 140C160 151 169 160 180 160z" />
    <glyph glyph-name="contrast"
      unicode="&#xF166;"
      horiz-adv-x="400" d="M380 240H354.8C351 254.6 345.2 268.4 337.8 281.2000000000001L356.6 300C364.4 307.8 364.4 320.4 356.6 328.2L328.4 356.4C320.6 364.2 308 364.2 300.2 356.4L281.4 337.6C268.4 345.2 254.6 351 240 354.8V380C240 391 231 400 220 400H180C169 400 160 391 160 380V354.8C144.8 350.8 130.6 344.8 117.4 337L100 354.4C92.6 361.8 80.4 361.8 72.8 354.4L45.6 327.2C38.2 319.6 38.2 307.6 45.6 300L63 282.6C55.2 269.4 49.2 255.2 45.2 240H20C9 240 0 231 0 220V180C0 169 9 160 20 160H45.2C49 145.4 54.8 131.6 62.2 118.8L43.4 100C35.6 92.2 35.6 79.6 43.4 71.8L71.6 43.6C79.4 35.8 92 35.8 99.8 43.6L118.6 62.4C131.4 54.8000000000001 145.2 49.2 159.8 45.4V20C159.8 9 168.8 0 179.8 0H219.8C230.8 0 239.8 9 239.8 20V45.2C255 49.2 269.2000000000001 55.2 282.4000000000001 63.0000000000001L300 45.6C307.4 38.2 319.6 38.2 327.2 45.6L354.4 72.8C361.8 80.4 361.8 92.4 354.4 100L337 117.4C345 130.4 351 144.8 354.8 160H380C391 160 400 169 400 180V220C400 231 391 240 380 240zM200 100C144.8 100 100 144.8 100 200S144.8 300 200 300V100z" />
    <glyph glyph-name="control"
      unicode="&#xF167;"
      horiz-adv-x="400" d="M340 200H200V60H340V200zM340 340H200V220H340V340zM180 340H60V60H180V340zM380 400H20C9 400 0 391 0 380V20C0 9 9 0 20 0H380C391 0 400 9 400 20V380C400 391 391 400 380 400zM360 40H40V360H360V40z" />
    <glyph glyph-name="credit-card"
      unicode="&#xF168;"
      horiz-adv-x="400" d="M380 340H20C9 340 0 331 0 320V280H400V320C400 331 391 340 380 340zM0 80C0 69 9 60 20 60H380C391 60 400 69 400 80V240H0V80zM130 120H270C275.6 120 280 115.6 280 110C280 104.4 275.6 100 270 100H130C124.4 100 120 104.4 120 110C120 115.6 124.4 120 130 120zM50 120H90C95.6 120 100 115.6 100 110C100 104.4 95.6 100 90 100H50C44.4 100 40 104.4 40 110C40 115.6 44.4 120 50 120z" />
    </font>
</defs>
</svg>
