<?xml version="1.0" standalone="no"?>
<!DOCTYPE svg PUBLIC "-//W3C//DTD SVG 1.1//EN" "http://www.w3.org/Graphics/SVG/1.1/DTD/svg11.dtd" >
<svg xmlns="http://www.w3.org/2000/svg">
<defs>
  <font id="blueprint-icons-16" horiz-adv-x="320">
    <font-face font-family="blueprint-icons-16"
      units-per-em="320" ascent="320"
      descent="0" />
    <missing-glyph horiz-adv-x="0" />
    <glyph glyph-name="add-clip"
      unicode="&#xF101;"
      horiz-adv-x="320" d="M240 320C228.954 320 220 311.0457 220 300V260H180C168.9544 260 160 251.0456 160 240C160 228.9544 168.9542 220 180 220H220V180C220 168.9544 228.954 160 240 160C251.046 160 260 168.9544 260 180V220H300C311.046 220 320 228.9544 320 240C320 251.0456 311.046 260 300 260H260V300C260 311.0457 251.046 320 240 320zM0 240C0 251.0456 8.9543 260 20 260H90C101.0456 260 110 251.0456 110 240C110 228.9544 101.0456 220 90 220H40V180C40 168.9544 31.0456 160 20 160C8.9543 160 0 168.9544 0 180V240zM20 0C8.9543 0 0 8.954 0 20V80C0 91.046 8.9543 100 20 100C31.0456 100 40 91.046 40 80V40H90C101.0456 40 110 31.046 110 20C110 8.954 101.0456 0 90 0H20zM240 0C245.304 0 250.392 2.108 254.142 5.858C257.892 9.608 260 14.696 260 20V80C260 91.046 251.046 100 240 100C228.954 100 220 91.046 220 80V40L180 40C168.9544 40 160 31.046 160 20C160 8.954 168.9542 0 180 0L240 0zM130 80C157.6142 80 180 102.386 180 130C180 157.6142 157.6142 180 130 180C102.3858 180 80 157.6142 80 130C80 102.386 102.3858 80 130 80z" />
    <glyph glyph-name="add-column-left"
      unicode="&#xF102;"
      horiz-adv-x="320" d="M300 320H20C9 320 0 311 0 300V20C0 9 9 0 20 0H300C311 0 320 9 320 20V300C320 311 311 320 300 320zM200 40H40V280H200V40zM280 40H220V280H280V40zM80 140H100V120C100 109 109 100 120 100S140 109 140 120V140H160C171 140 180 149 180 160C180 171 171 180 160 180H140V200C140 211 131 220 120 220S100 211 100 200V180H80C69 180 60 171 60 160C60 149 69 140 80 140z" />
    <glyph glyph-name="add-column-right"
      unicode="&#xF103;"
      horiz-adv-x="320" d="M160 140H180V120C180 109 189 100 200 100S220 109 220 120V140H240C251 140 260 149 260 160C260 171 251 180 240 180H220V200C220 211 211 220 200 220S180 211 180 200V180H160C149 180 140 171 140 160C140 149 149 140 160 140zM300 320H20C9 320 0 311 0 300V20C0 9 9 0 20 0H300C311 0 320 9 320 20V300C320 311 311 320 300 320zM100 40H40V280H100V40zM280 40H120V280H280V40z" />
    <glyph glyph-name="add-location"
      unicode="&#xF104;"
      horiz-adv-x="320" d="M160 320C171.045695 320 180 311.045695 180 300C180 288.954305 171.045695 280 160 280C93.72583 280 40 226.27417 40 160C40 93.72583 93.72583 40 160 40C226.2741700000001 40 280 93.72583 280 160C280 171.045695 288.9543060000001 180 300 180C311.045694 180 320 171.045695 320 160C320 71.63444 248.36556 0 160 0C71.63444 0 0 71.63444 0 160C0 248.36556 71.63444 320 160 320zM160 220C193.137085 220 220 193.137085 220 160C220 126.862915 193.137085 100 160 100C126.862915 100 100 126.862915 100 160C100 193.137085 126.862915 220 160 220zM260 320C271.045694 320 280 311.045695 280 300L280 280.02L300 280C311.045694 280 320 271.045695 320 260C320 248.954305 311.045694 240 300 240L280 240L280 220C280 208.954305 271.045694 200 260 200C248.954306 200 240 208.954305 240 220L240 240L220 240C208.954306 240 200 248.954305 200 260C200 271.045695 208.954306 280 220 280L240 280L240 300C240 311.045695 248.954306 320 260 320z" />
    <glyph glyph-name="add-row-bottom"
      unicode="&#xF105;"
      horiz-adv-x="320" d="M120 100H140V80C140 69 149 60 160 60S180 69 180 80V100H200C211 100 220 109 220 120C220 131 211 140 200 140H180V160C180 171 171 180 160 180S140 171 140 160V140H120C109 140 100 131 100 120C100 109 109 100 120 100zM300 320H20C9 320 0 311 0 300V20C0 9 9 0 20 0H300C311 0 320 9 320 20V300C320 311 311 320 300 320zM280 40H40V200H280V40zM280 220H40V280H280V220z" />
    <glyph glyph-name="add-row-top"
      unicode="&#xF106;"
      horiz-adv-x="320" d="M300 320H20C9 320 0 311 0 300V20C0 9 9 0 20 0H300C311 0 320 9 320 20V300C320 311 311 320 300 320zM280 40H40V100H280V40zM280 120H40V280H280V120zM120 180H140V160C140 149 149 140 160 140S180 149 180 160V180H200C211 180 220 189 220 200C220 211 211 220 200 220H180V240C180 251 171 260 160 260S140 251 140 240V220H120C109 220 100 211 100 200C100 189 109 180 120 180z" />
    <glyph glyph-name="add-to-artifact"
      unicode="&#xF107;"
      horiz-adv-x="320" d="M280 239.8H260V259.8C260 270.8 251 279.8 240 279.8S220 270.8 220 259.8V239.8H200C189 239.8 180 230.8 180 219.8C180 208.8 189 199.8 200 199.8H220V179.8C220 168.8 229 159.8 240 159.8S260 168.8 260 179.8V199.8H280C291 199.8 300 208.8 300 219.8C300 231 291 239.8 280 239.8zM20 199.8H140C151 199.8 160 208.8 160 219.8C160 230.8 151 239.8 140 239.8H20C9 239.8 0 230.8 0 219.8C0 208.8 9 199.8 20 199.8zM180 79.8H20C9 79.8 0 70.8 0 59.8C0 48.8 9 39.8 20 39.8H180C191 39.8 200 48.8 200 59.8C200 71 191 79.8 180 79.8zM180 159.8H20C9 159.8 0 150.8 0 139.8C0 128.8 9 119.8 20 119.8H180C191 119.8 200 128.8 200 139.8C200 151 191 159.8 180 159.8z" />
    <glyph glyph-name="add-to-folder"
      unicode="&#xF108;"
      horiz-adv-x="320" d="M0.199875078 180L0.199875078 220L320 220L320 80C320 69 311.005622 60 300.012492 60L180.0874454 60L180.0874454 119.8C179.494792 153.3664478 152.8778754 180 119.9250468 180L39.9750156 180L0.199875078 180zM300.012492 280L148.307308 280L114.1286696 314.2C110.5309182 317.8 105.5340412 320 99.937539 320L19.9875078 320C8.99437852 320 0 311 0 300L0 240L319.800124 240L319.800124 260C320 271 311.005622 280 300.012492 280zM119.9250468 140L39.9750156 140C28.9818864 140 19.9875078 131 19.9875078 120C19.9875078 109 28.9818864 100 39.9750156 100L71.755153 100L5.99625234 34.2C2.39850094 30.6 0.199875078 25.6 0.199875078 20C0.199875078 9 9.1942536 0 20.1873828 0C25.783885 0 30.780762 2.2 34.3785134 5.8L100.1374142 71.6L100.1374142 39.8C100.1374142 28.8 109.1317926 19.8 120.124922 19.8C131.1180512 19.8 140.1124298 28.8 140.1124298 39.8L140.1124298 119.8C139.9125546 131 130.9181762 140 119.9250468 140z" />
    <glyph glyph-name="add"
      unicode="&#xF109;"
      horiz-adv-x="320" d="M219.8 180.2H179.8V220.2C179.8 231.2 170.8 240.2 159.8 240.2S139.8 231.2 139.8 220.2V180.2H99.8C88.8 180.2 79.8 171.2 79.8 160.2S88.8 140.2 99.8 140.2H139.8V100.2C139.8 89.2 148.8 80.2 159.8 80.2S179.8 89.2 179.8 100.2V140.2H219.8C230.8 140.2 239.8 149.2 239.8 160.2S230.8 180.2 219.8 180.2zM159.8 320.2C71.4 320.2 -0.2 248.6 -0.2 160.2S71.4 0.2 159.8 0.2S319.8 71.8 319.8 160.2S248.2 320.2 159.8 320.2zM159.8 40.2C93.6 40.2 39.8 94 39.8 160.2S93.6 280.2 159.8 280.2S279.8 226.4 279.8 160.2S226.2 40.2 159.8 40.2z" />
    <glyph glyph-name="aimpoints-target"
      unicode="&#xF335;"
      horiz-adv-x="320" d="M42.0176 137.971C28.082 134.77 15.53596 127.9292 5.43386 118.502C1.889708 131.737 0 145.6478 0 160C0 248.3656 71.6344 320 160 320C174.3522 320 188.263 318.110292 201.498 314.56614C192.0708 304.46404 185.23 291.918 182.029 277.9824C174.888 279.3074000000001 167.525 280 160 280C93.7258 280 40 226.2742 40 160C40 152.475 40.6926 145.112 42.0176 137.971zM280 160C280 167.525 279.308 174.888 277.9820000000001 182.029C291.918 185.23 304.464 192.0708 314.5660000000001 201.4972C318.11 188.263 320 174.3522 320 160C320 71.634 248.366 0 160 0C145.6478 0 131.737 1.89 118.5028 5.434C127.9292 15.536 134.77 28.082 137.971 42.018C145.112 40.692 152.475 40 160 40C226.274 40 280 93.726 280 160zM160 260C148.955 260 140 251.0462 140 240V200C140 188.9538 148.955 180 160 180C171.045 180 180 188.9538 180 200V240C180 251.0462 171.045 260 160 260zM180 160C180 171.0462 188.955 180 200 180H240C251.044 180 260 171.0462 260 160C260 148.9538 251.044 140 240 140H200C188.955 140 180 148.9538 180 160zM60 160C60 171.0462 68.955 180 80 180H120C131.045 180 140 171.0462 140 160C140 148.9538 131.045 140 120 140H80C68.955 140 60 148.9538 60 160zM140 120C140 131.0462 148.955 140 160 140C171.045 140 180 131.0462 180 120V80C180 68.954 171.045 60 160 60C148.955 60 140 68.954 140 80V120zM100 60C100 37.908 82.0914 20 60 20C37.9086 20 20 37.908 20 60C20 82.092 37.9086 100 60 100C82.0914 100 100 82.092 100 60zM260 220C282.092 220 300 237.9086 300 260C300 282.0914 282.092 300 260 300C237.908 300 220 282.0914 220 260C220 237.9086 237.908 220 260 220z" />
    <glyph glyph-name="airplane"
      unicode="&#xF10A;"
      horiz-adv-x="320" d="M320 290C320 306.6 306.6 320 290 320C281.8 320 274.2000000000001 316.6 268.8 311.2L198.2 240.6L40 300L20 260L138.6 181L77.6 120H20L0 100L60 60L100 0L120 20V77.6L181 138.6L260 20L300 40L240.6 198.2L311.2 268.8C316.6 274.2 320 281.8 320 290z" />
    <glyph glyph-name="align-center"
      unicode="&#xF10B;"
      horiz-adv-x="320" d="M80 240C69 240 60 231 60 220C60 209 69 200 80 200H240C251 200 260 209 260 220C260 231 251 240 240 240H80zM20 260H300C311 260 320 269 320 280C320 291 311 300 300 300H20C9 300 0 291 0 280C0 269 9 260 20 260zM280 60H40C29 60 20 51 20 40C20 29 29 20 40 20H280C291 20 300 29 300 40C300 51 291 60 280 60zM300 180H20C9 180 0 171 0 160C0 149 9 140 20 140H300C311 140 320 149 320 160C320 171 311 180 300 180zM200 80C211 80 220 89 220 100C220 111 211 120 200 120H120C109 120 100 111 100 100C100 89 109 80 120 80H200z" />
    <glyph glyph-name="align-justify"
      unicode="&#xF10C;"
      horiz-adv-x="320" d="M300 60.4H20C9 60.4 0 51.4 0 40.4C0 29.4 9 20.4 20 20.4H300C311 20.4 320 29.4 320 40.4C320 51.4 311 60.4 300 60.4zM20 260.4H300C311 260.4 320 269.4 320 280.4C320 291.4 311 300.4 300 300.4H20C9 300.4 0 291.4 0 280.4C0 269.2 9 260.4 20 260.4zM300 180.4H20C9 180.4 0 171.4 0 160.4C0 149.4 9 140.4 20 140.4H300C311 140.4 320 149.4 320 160.4C320 171.4 311 180.4 300 180.4zM300 240.4H20C9 240.4 0 231.4 0 220.4C0 209.4 9 200.4 20 200.4H300C311 200.4 320 209.4 320 220.4C320 231.4 311 240.4 300 240.4zM300 120.4H20C9 120.4 0 111.4 0 100.4C0 89.4 9 80.4 20 80.4H300C311 80.4 320 89.4 320 100.4C320 111.4 311 120.4 300 120.4z" />
    <glyph glyph-name="align-left"
      unicode="&#xF10D;"
      horiz-adv-x="320" d="M260 60H20C9 60 0 51 0 40C0 29 9 20 20 20H260C271 20 280 29 280 40C280 51 271 60 260 60zM20 260H300C311 260 320 269 320 280C320 291 311 300 300 300H20C9 300 0 291 0 280C0 269 9 260 20 260zM20 200H180C191 200 200 209 200 220C200 231 191 240 180 240H20C9 240 0 231 0 220C0 209 9 200 20 200zM300 180H20C9 180 0 171 0 160C0 149 9 140 20 140H300C311 140 320 149 320 160C320 171 311 180 300 180zM20 80H100C111 80 120 89 120 100C120 111 111 120 100 120H20C9 120 0 111 0 100C0 89 9 80 20 80z" />
    <glyph glyph-name="align-right"
      unicode="&#xF10E;"
      horiz-adv-x="320" d="M300 60.4H60C49 60.4 40 51.4 40 40.4C40 29.4 49 20.4 60 20.4H300C311 20.4 320 29.4 320 40.4C320 51.4 311 60.4 300 60.4zM20 260.4H300C311 260.4 320 269.4 320 280.4C320 291.4 311 300.4 300 300.4H20C9 300.4 0 291.4 0 280.4C0 269.2 9 260.4 20 260.4zM300 240.4H140C129 240.4 120 231.4 120 220.4C120 209.4 129 200.4 140 200.4H300C311 200.4 320 209.4 320 220.4C320 231.4 311 240.4 300 240.4zM300 120.4H220C209 120.4 200 111.4 200 100.4C200 89.4 209 80.4 220 80.4H300C311 80.4 320 89.4 320 100.4C320 111.4 311 120.4 300 120.4zM300 180.4H20C9 180.4 0 171.4 0 160.4C0 149.4 9 140.4 20 140.4H300C311 140.4 320 149.4 320 160.4C320 171.4 311 180.4 300 180.4z" />
    <glyph glyph-name="alignment-bottom"
      unicode="&#xF10F;"
      horiz-adv-x="320" d="M200 80H260C271 80 280 89 280 100V180C280 191 271 200 260 200H200C189 200 180 191 180 180V100C180 89 189 80 200 80zM300 40H20C9 40 0 31 0 20S9 0 20 0H300C311 0 320 9 320 20S311 40 300 40zM60 80H120C131 80 140 89 140 100V280C140 291 131 300 120 300H60C49 300 40 291 40 280V100C40 89 49 80 60 80z" />
    <glyph glyph-name="alignment-horizontal-center"
      unicode="&#xF110;"
      horiz-adv-x="320" d="M300 180H280V200C280 211 271 220 260 220H200C189 220 180 211 180 200V180H140V260C140 271 131 280 120 280H60C49 280 40 271 40 260V180H20C9 180 0 171 0 160C0 149 9 140 20 140H40V60C40 49 49 40 60 40H120C131 40 140 49 140 60V140H180V120C180 109 189 100 200 100H260C271 100 280 109 280 120V140H300C311 140 320 149 320 160C320 171 311 180 300 180z" />
    <glyph glyph-name="alignment-left"
      unicode="&#xF111;"
      horiz-adv-x="320" d="M180 140H100C89 140 80 131 80 120V60C80 49 89 40 100 40H180C191 40 200 49 200 60V120C200 131 191 140 180 140zM20 320C9 320 0 311 0 300V20C0 9 9 0 20 0S40 9 40 20V300C40 311 31 320 20 320zM280 280H100C89 280 80 271 80 260V200C80 189 89 180 100 180H280C291 180 300 189 300 200V260C300 271 291 280 280 280z" />
    <glyph glyph-name="alignment-right"
      unicode="&#xF112;"
      horiz-adv-x="320" d="M220 140H140C129 140 120 131 120 120V60C120 49 129 40 140 40H220C231 40 240 49 240 60V120C240 131 231 140 220 140zM300 320C289 320 280 311 280 300V20C280 9 289 0 300 0S320 9 320 20V300C320 311 311 320 300 320zM220 280H40C29 280 20 271 20 260V200C20 189 29 180 40 180H220C231 180 240 189 240 200V260C240 271 231 280 220 280z" />
    <glyph glyph-name="alignment-top"
      unicode="&#xF113;"
      horiz-adv-x="320" d="M300 320H20C9 320 0 311 0 300S9 280 20 280H300C311 280 320 289 320 300S311 320 300 320zM120 240H60C49 240 40 231 40 220V40C40 29 49 20 60 20H120C131 20 140 29 140 40V220C140 231 131 240 120 240zM260 240H200C189 240 180 231 180 220V140C180 129 189 120 200 120H260C271 120 280 129 280 140V220C280 231 271 240 260 240z" />
    <glyph glyph-name="alignment-vertical-center"
      unicode="&#xF114;"
      horiz-adv-x="320" d="M260 280H180V300C180 311 171 320 160 320S140 311 140 300V280H60C49 280 40 271 40 260V200C40 189 49 180 60 180H140V140H120C109 140 100 131 100 120V60C100 49 109 40 120 40H140V20C140 9 149 0 160 0S180 9 180 20V40H200C211 40 220 49 220 60V120C220 131 211 140 200 140H180V180H260C271 180 280 189 280 200V260C280 271 271 280 260 280z" />
    <glyph glyph-name="ammunition"
      unicode="&#xF342;"
      horiz-adv-x="320" d="M42.5196 297.9882C66.211 279.0332 80 250.3418 80 220V60H0V220C0 250.3418 13.78906 279.0332 37.4804 297.9882L40 300L42.5196 297.9882zM162.5196 297.9882C186.211 279.0332 200 250.3418 200 220V60H120V220C120 250.3418 133.789 279.0332 157.4804 297.9882L160 300L162.5196 297.9882zM320 220C320 250.3418 306.21 279.0332 282.52 297.9882L280 300L277.48 297.9882C253.79 279.0332 240 250.3418 240 220V60H320V220zM80 20V40H0V20H80zM200 40V20H120V40H200zM320 20V40H240V20H320z" />
    <glyph glyph-name="anchor"
      unicode="&#xF330;"
      horiz-adv-x="320" d="M200 280C200 265.1944 191.956 252.2674 180 245.3512V220H220V180H180V42.52C211.764 50.696 235.894 77.89 239.526 111.242L234.142 105.858C226.332 98.048 213.668 98.048 205.858 105.858C198.0474 113.668 198.0474 126.3316 205.858 134.1422L245.858 174.1422C253.668 181.9526 266.332 181.9526 274.142 174.1422L314.142 134.1422C321.952 126.3316 321.952 113.668 314.142 105.858C306.332 98.048 293.668 98.048 285.858 105.858L279.736 111.98C275.61 49.444 223.58 0 160 0C96.421 0 44.3904 49.444 40.2638 111.98L34.1422 105.858C26.3316 98.048 13.66834 98.048 5.85786 105.858C-1.952622 113.668 -1.952622 126.3316 5.85786 134.1422L45.8578 174.1422C53.6684 181.9526 66.3316 181.9526 74.1422 174.1422L114.1422 134.1422C121.9526 126.3316 121.9526 113.668 114.1422 105.858C106.3316 98.048 93.6684 98.048 85.8578 105.858L80.474 111.242C84.1054 77.89 108.235 50.696 140 42.52V180H100V220H140V245.3512C128.044 252.2674 120 265.1944 120 280C120 302.09138 137.9086 320 160 320C182.0914 320 200 302.09138 200 280z" />
    <glyph glyph-name="annotation"
      unicode="&#xF115;"
      horiz-adv-x="320" d="M310.4 264.6C316.4 270.4 320 278.6 320 287.6C320 305.4 305.4 320 287.6 320C278.6 320 270.6 316.4 264.6 310.4L237.8 283.6L283.8 237.6L310.4 264.6zM148 102L272.2 226.2L226.2 272.2L102 148L148 102zM280 40H40V280H166.8L206.8 320H20C9 320 0 311 0 300V20C0 9 9 0 20 0H300C311 0 320 9 320 20V206.8L280 166.8V40zM60 60L131.6 85.8L85.8 131.2L60 60z" />
    <glyph glyph-name="antenna"
      unicode="&#xF116;"
      horiz-adv-x="320" d="M53.4522 104.846C53.6014 104.556 53.7448 104.266 53.8824 103.974C54.1106 103.488 54.3226 102.998 54.519 102.502C54.825 101.73 55.0922 100.944 55.3204 100.152C57.8608 91.326 55.5532 81.522 48.0828 75.91C39.2522 69.274 26.5818 70.998 21.0994 80.586C9.85026 100.262 2.87064 122.1734 0.71542 144.8874C-2.07188 174.263 3.31854 203.8374 16.2907 230.3406C29.2628 256.8438 49.3114 279.2434 74.22 295.0632C99.1284 310.88298 127.9264 319.506522 157.4302 319.98044334C186.934 320.454364 215.994 312.7602 241.398 297.7486C266.802 282.737 287.56 260.9928 301.376 234.9198C315.192 208.847 321.53 179.461 319.688 150.011C318.264 127.2394 311.99 105.116 301.38 85.088C296.208 75.328 283.6 73.2 274.56 79.548C266.914 84.918 264.2920000000001 94.642 266.548 103.544C266.75 104.344 266.992 105.138 267.274 105.92C267.454 106.422 267.65 106.918 267.862 107.41C267.99 107.708 268.124 108.002 268.264 108.296C274.86 122.1072 278.78 137.1112 279.744 152.51C281.126 174.5934 276.372 196.6286 266.012 216.1796C255.652 235.7306 240.086 252.0358 221.038 263.2924C201.988 274.549 180.1968 280.3186 158.073 279.9632000000001C135.9494 279.6078 114.3548 273.1414 95.677 261.2788C76.999 249.4162 61.9654 232.6194 52.2382 212.7458C42.5108 192.8722 38.4688 170.6956 40.5588 148.668C42.0164 133.308 46.4158 118.438 53.4522 104.846zM102.7346 142.0772C103.1602 140.7176 103.5062 139.325 103.7668 137.9164C104.0074 136.6174 104.1754 135.3048 104.2666 133.992C104.843 125.6908 102.3476 117.38 95.6686 112.442C86.7876 105.876 74.0522 107.704 69.3816 117.712C67.502 121.7406 65.893 125.8892 64.5656 130.1302L64.4998 130.3414C62.3884 137.1394 60.9996 144.1736 60.3768 151.3292C58.7774 169.702 62.29 188.1592 70.5262 204.6602C78.7622 221.1612 91.4012 235.0632 107.0454 244.8292C122.6896 254.5952 140.7296 259.8448 159.1712 259.9976000000001C177.6128 260.1504 195.7376 255.2006 211.542 245.6952C227.346 236.1898 240.212 222.4992 248.722 206.137C257.23 189.7748 261.048 171.3784 259.754 152.9816C259.25 145.8168 257.978 138.7604 255.978 131.9284L255.916 131.7162C254.6600000000001 127.4536 253.12 123.279 251.306 119.22C246.802 109.136 234.1 107.098 225.11 113.514C218.35 118.342 215.718 126.6096 216.156 134.9192C216.226 136.2334 216.372 137.5486 216.592 138.8514C216.828 140.2642 217.152 141.6624 217.554 143.0288C218.776 147.168 219.552 151.4452 219.856 155.789C220.634 166.828 218.342 177.8668 213.238 187.6848C208.132 197.503 200.41 205.718 190.9274 211.4218C181.4442 217.1254 170.5686 220.0956 159.5028 220.004C148.4368 219.9122 137.6118 216.7622 128.2246 210.902C118.8374 205.042 111.2534 196.7002 106.3114 186.7988C101.3692 176.8974 99.2614 165.8222 100.2212 154.7976C100.5988 150.4594 101.4456 146.1956 102.7346 142.0772zM159.9998 180.0022C171.0456 180.0022 179.9998 171.0478 179.9998 160.0022V88.286L234.142 34.144C241.952 26.334 241.952 13.67 234.142 5.86C226.332 -1.95 213.668 -1.95 205.858 5.86L159.9998 51.718L114.142 5.86C106.3316 -1.95 93.6682 -1.95 85.8578 5.86C78.0472 13.67 78.0472 26.334 85.8578 34.144L139.9998 88.286V160.0022C139.9998 171.0478 148.9542 180.0022 159.9998 180.0022z" />
    <glyph glyph-name="app-header"
      unicode="&#xF117;"
      horiz-adv-x="320" d="M300 320C311.045694 320 320 311.045695 320 300L320 20C320 8.954306 311.045694 0 300 0L20 0C8.954305 0 0 8.954306 0 20L0 300C0 311.045695 8.954305 320 20 320L300 320zM120 240C120 251.045695 111.045695 260 100 260C89.7432832 260 81.2898568 252.2791962 80.1345546 242.3324226L80 240L80 80C80 68.954306 88.954305 60 100 60C110.2567168 60 118.7101432 67.720804 119.8654454 77.667578L120 80L120 140L200 140L200 80C200 68.954306 208.954306 60 220 60C230.256716 60 238.710144 67.720804 239.865446 77.667578L240 80L240 240C240 251.045695 231.045694 260 220 260C209.743284 260 201.289856 252.2791962 200.134554 242.3324226L200 240L200 180L120 180L120 240z" />
    <glyph glyph-name="application"
      unicode="&#xF118;"
      horiz-adv-x="320" d="M70 180H210C215.6 180 220 184.4 220 190C220 195.6 215.6 200 210 200H70C64.4 200 60 195.6 60 190C60 184.4 64.4 180 70 180zM300 300H20C9 300 0 291 0 280V40C0 29 9 20 20 20H300C311 20 320 29 320 40V280C320 291 311 300 300 300zM280 60H40V220H280V60zM70 140H150C155.6 140 160 144.4 160 150C160 155.6 155.6 160 150 160H70C64.4 160 60 155.6 60 150C60 144.4 64.4 140 70 140zM70 100H170C175.6 100 180 104.4 180 110C180 115.6 175.6 120 170 120H70C64.4 120 60 115.6 60 110C60 104.4 64.4 100 70 100z" />
    <glyph glyph-name="applications"
      unicode="&#xF119;"
      horiz-adv-x="320" d="M70 100H110C115.6 100 120 104.4 120 110C120 115.6 115.6 120 110 120H70C64.4 120 60 115.6 60 110C60 104.4 64.4 100 70 100zM70 140H170C175.6 140 180 144.4 180 150C180 155.6 175.6 160 170 160H70C64.4 160 60 155.6 60 150C60 144.4 64.4 140 70 140zM220 240H20C9 240 0 231 0 220V20C0 9 9 0 20 0H220C231 0 240 9 240 20V220C240 231 231 240 220 240zM200 40H40V180H200V40zM300 320H100C89 320 80 311 80 300V260H120V280H280V140H260V100H300C311 100 320 109 320 120V300C320 311 311 320 300 320zM70 60H130C135.6 60 140 64.4 140 70C140 75.6 135.6 80 130 80H70C64.4 80 60 75.6 60 70C60 64.4 64.4 60 70 60z" />
    <glyph glyph-name="archive"
      unicode="&#xF11A;"
      horiz-adv-x="320" d="M267.63932 320C275.214762 320 282.140024 315.71995248 285.527864 308.9442719L320 240L320 20C320 8.954306 311.045694 0 300 0L20 0C8.954305 0 0 8.954306 0 20L0 240L34.472136 308.9442719C37.8599762 315.71995248 44.7852386 320 52.3606798 320L267.63932 320zM160 200C149 200 140 191 140 180L140 180L140 128.2L134.2 134L132.573761 135.528863C129.1591836 138.3836734 124.8 140 120 140C109 140 100 131 100 120C100 114.4 102.2 109.4 105.8 105.8L105.8 105.8L145.8 65.8L147.712963 64.12037C151.0833334 61.527778 155.3333334 60 160 60C165.6 60 170.6 62.2 174.2 65.8L174.2 65.8L214.2 105.8L215.87963 107.712962C218.472222 111.083334 220 115.333334 220 120C220 131 211 140 200 140C194.4 140 189.4 137.8 185.8 134.2L185.8 134.2L180 128.2L180 180L179.864796 182.3239796C178.7040816 192.239796 170.2142858 200 160 200zM260 280L60 280L40 240L280 240L260 280z" />
    <glyph glyph-name="area-of-interest"
      unicode="&#xF11B;"
      horiz-adv-x="320" d="M80.0006 246.7126C80.0006 287.1376 115.8626 320 160.0006 320C204.138 320 239.856 287.1376 240 246.7126C240 206.15 160.0006 100 160.0006 100C160.0006 100 80.0006 206.15 80.0006 246.7126zM120.0006 240C120.0006 217.92 137.9206 200 160.0006 200C182.0806 200 200 217.92 200 240C200 262.08 182.0806 280 160.0006 280C137.9206 280 120.0006 262.08 120.0006 240zM270.086 114.628L216.482 146.7902L216.902 147.4524C223.718 158.2264 230.652 169.7582 236.886 181.1958L310.29 137.1528C315.238 134.1834 318.664 129.221 319.684 123.5406C320.706 117.86 319.222 112.016 315.618 107.51L235.618 7.51C231.822 2.764 226.076 0.002 220 0.002H100.0002C93.9244 0.002 88.1782 2.764 84.3828 7.51L4.38276 107.51C0.777406 112.016 -0.705358 117.86 0.315498 123.5406C1.336354 129.221 4.7613 134.1834 9.71022 137.1528L83.116 181.1962C89.348 169.7586 96.2824 158.2266 103.0998 147.4524L103.519 146.7906L49.9134 114.628L109.6126 40.002H210.388L270.086 114.628z" />
    <glyph glyph-name="array-boolean"
      unicode="&#xF11C;"
      horiz-adv-x="320" d="M300 320C310.256716 320 318.710144 312.2791962 319.865446 302.3324225L320 300L320 20C320 9.743284 312.279196 1.289856 302.332422 0.134554L300 0L240 0C228.954306 0 220 8.954306 220 20C220 30.256716 227.720804 38.710144 237.667578 39.865446L240 40L280 40L280 280L240 280C229.743284 280 221.289856 287.7208038 220.134554 297.6675774000001L220 300C220 310.25671678 227.720804 318.7101432140001 237.667578 319.8654453734L240 320L300 320zM80 320C91.045695 320 100 311.045695 100 300C100 289.7432832 92.2791962 281.2898568 82.3324226 280.1345546L80 280L40 280L40 40L80 40C90.2567168 40 98.7101432 32.279196 99.8654454 22.332422L100 20C100 9.743284 92.2791962 1.289856 82.3324226 0.134554L80 0L20 0C9.74328322 0 1.289856786 7.720804 0.1345546266 17.667578L0 20L0 300C0 310.25671678 7.7208038 318.7101432140001 17.6675775 319.8654453734L20 320L80 320zM220 200C230.256716 200 238.710144 192.2791962 239.865446 182.3324226L240 180L240 140C240 129.7432832 232.279196 121.2898568 222.332422 120.1345546L220 120L100 120C89.7432832 120 81.2898568 127.7208038 80.1345546 137.6675774L80 140L80 180C80 190.2567168 87.7208038 198.7101432 97.6675774 199.8654454L100 200L220 200zM220 180L160 180L160 140L220 140L220 180z" />
    <glyph glyph-name="array-date"
      unicode="&#xF11D;"
      horiz-adv-x="320" d="M300 320C310.256716 320 318.710144 312.2791962 319.865446 302.3324225L320 300L320 20C320 9.743284 312.279196 1.289856 302.332422 0.134554L300 0L240 0C228.954306 0 220 8.954306 220 20C220 30.256716 227.720804 38.710144 237.667578 39.865446L240 40L280 40L280 280L240 280C229.743284 280 221.289856 287.7208038 220.134554 297.6675774000001L220 300C220 310.25671678 227.720804 318.7101432140001 237.667578 319.8654453734L240 320L300 320zM80 320C91.045695 320 100 311.045695 100 300C100 289.7432832 92.2791962 281.2898568 82.3324226 280.1345546L80 280L40 280L40 40L80 40C90.2567168 40 98.7101432 32.279196 99.8654454 22.332422L100 20C100 9.743284 92.2791962 1.289856 82.3324226 0.134554L80 0L20 0C9.74328322 0 1.289856786 7.720804 0.1345546266 17.667578L0 20L0 300C0 310.25671678 7.7208038 318.7101432140001 17.6675775 319.8654453734L20 320L80 320zM210 240C215.522848 240 220 235.5228474 220 230L220 220C230.256716 220 238.710144 212.2791962 239.865446 202.3324226L240 200L240 100C240 89.743284 232.279196 81.289856 222.332422 80.134554L220 80L100 80C89.7432832 80 81.2898568 87.720804 80.1345546 97.667578L80 100L80 200C80 210.2567168 87.7208038 218.7101432 97.6675774 219.8654454L100 220L100 230C100 235.5228474 104.4771526 240 110 240C115.5228474 240 120 235.5228474 120 230L120 220L200 220L200 230C200 235.5228474 204.477152 240 210 240zM220 180L100 180L100 100L220 100L220 180z" />
    <glyph glyph-name="array-floating-point"
      unicode="&#xF32D;"
      horiz-adv-x="320" d="M319.866 302.33242C318.71 312.2792 310.2560000000001 320 300 320H240L237.668 319.8654454C227.72 318.710144 220 310.25672 220 300L220.134 297.6676C221.29 287.7208 229.744 280 240 280H280V40H240L237.668 39.866C227.72 38.71 220 30.256 220 20C220 8.954 228.954 0 240 0H300L302.332 0.134C312.2800000000001 1.29 320 9.744 320 20V300L319.866 302.33242zM100 300C100 311.0457 91.0456 320 80 320H20L17.66758 319.8654454C7.7208 318.710144 0 310.25672 0 300V20L0.1345546 17.668C1.289856 7.72 9.74328 0 20 0H80L82.3324 0.134C92.2792 1.29 100 9.744 100 20L99.8654 22.332C98.7102 32.28 90.2568 40 80 40H40V280H80L82.3324 280.1346C92.2792 281.2898 100 289.7432 100 300zM86.9424 202.8064C83.3994 202.1812 79.7524 201.8686 76.001 201.8686V187.801H102.8856V110.586H122.4238V220H107.8872C107.262 216.6654 105.9074 213.852 103.8234 211.5596C101.8434 209.267 99.3948 207.3914 96.477 205.9326C93.6636 204.4736 90.4852 203.4316 86.9424 202.8064zM229.234 214.6172C224.52 218.1276 218.402 219.8828 210.88 219.8828C203.356 219.8828 197.1888 218.1276 192.3746 214.6172C187.6606 211.2072 183.9496 206.7942 181.2416 201.3782C178.634 196.0626 176.8286 190.1952 175.8256 183.7762C174.923 177.3572 174.4716 171.139 174.4716 165.1212C174.4716 159.1034 174.923 152.885 175.8256 146.4662C176.8286 140.0472 178.634 134.1296 181.2416 128.7138C183.9496 123.398 187.6606 118.986 192.3746 115.474C197.1888 112.064 203.356 110.36 210.88 110.36C218.402 110.36 224.52 112.064 229.234 115.474C234.048 118.986 237.758 123.398 240.366 128.7138C243.074 134.1296 244.88 140.0472 245.782 146.4662C246.786 152.885 247.286 159.1034 247.286 165.1212C247.286 171.139 246.786 177.3572 245.782 183.7762C244.88 190.1952 243.074 196.0626 240.366 201.3782C237.758 206.7942 234.048 211.2072 229.234 214.6172zM220.206 127.811C217.7 125.7048 214.59 124.6518 210.88 124.6518C207.068 124.6518 203.908 125.7048 201.402 127.811C198.994 130.0176 197.0384 132.9262 195.5338 136.5368C194.1298 140.2478 193.1268 144.5604 192.525 149.475C191.9232 154.3894 191.6224 159.6048 191.6224 165.1212C191.6224 170.6374 191.9232 175.8028 192.525 180.617C193.1268 185.5314 194.1298 189.8442 195.5338 193.5552C197.0384 197.266 198.994 200.1746 201.402 202.2808C203.908 204.4874 207.068 205.5906 210.88 205.5906C214.59 205.5906 217.7 204.4874 220.206 202.2808C222.714 200.1746 224.67 197.266 226.074 193.5552C227.578 189.8442 228.632 185.5314 229.234 180.617C229.836 175.8028 230.136 170.6374 230.136 165.1212C230.136 159.6048 229.836 154.3894 229.234 149.475C228.632 144.5604 227.578 140.2478 226.074 136.5368C224.67 132.9262 222.714 130.0176 220.206 127.811zM141.6494 131.0938H163.3758V109.992H141.6494V131.0938z" />
    <glyph glyph-name="array-numeric"
      unicode="&#xF11E;"
      horiz-adv-x="320" d="M300 320C310.256716 320 318.710144 312.2791962 319.865446 302.3324225L320 300L320 20C320 9.743284 312.279196 1.289856 302.332422 0.134554L300 0L240 0C228.954306 0 220 8.954306 220 20C220 30.256716 227.720804 38.710144 237.667578 39.865446L240 40L280 40L280 280L240 280C229.743284 280 221.289856 287.7208038 220.134554 297.6675774000001L220 300C220 310.25671678 227.720804 318.7101432140001 237.667578 319.8654453734L240 320L300 320zM80 320C91.045695 320 100 311.045695 100 300C100 289.7432832 92.2791962 281.2898568 82.3324226 280.1345546L80 280L40 280L40 40L80 40C90.2567168 40 98.7101432 32.279196 99.8654454 22.332422L100 20C100 9.743284 92.2791962 1.289856 82.3324226 0.134554L80 0L20 0C9.74328322 0 1.289856786 7.720804 0.1345546266 17.667578L0 20L0 300C0 310.25671678 7.7208038 318.7101432140001 17.6675775 319.8654453734L20 320L80 320zM218.08 220C223.2 220 227.733334 219.2533334 231.68 217.76C235.626666 216.2666666 238.96 214.1866666 241.68 211.52C244.4 208.8533334 246.48 205.68 247.92 202C249.36 198.32 250.08 194.2933334 250.08 189.92C250.08 185.3333334 249.066666 181.0933334 247.04 177.2C245.013334 173.3066666 241.973334 170.0266666 237.92 167.36L237.92 167.36L237.92 167.04L239.537778 166.2488888C240.628148 165.6207408 241.742222 164.7911112 242.88 163.76C244.586666 162.2133334 246.133334 160.32 247.52 158.08C248.906666 155.84 250.053334 153.2533334 250.96 150.32C251.866666 147.3866666 252.32 144.16 252.32 140.64C252.32 135.6266666 251.466666 131.0933334 249.76 127.04C248.053334 122.9866666 245.68 119.52 242.64 116.64C239.6 113.76 236 111.546666 231.84 110C227.68 108.453334 223.146666 107.68 218.24 107.68C209.706666 107.68 202.4 109.706666 196.32 113.76C190.24 117.813334 186.3466666 123.5733334 184.64 131.04C184.4266666 132.1066666 184.8533334 132.8 185.92 133.12L185.92 133.12L199.84 136.32L200.5 136.37C201.1 136.31 201.52 135.92 201.76 135.2C202.933334 132 204.853334 129.28 207.52 127.04C210.186666 124.8 213.76 123.68 218.24 123.68C223.36 123.68 227.306666 125.2 230.08 128.24C232.853334 131.28 234.24 135.1466666 234.24 139.84C234.24 145.3866666 232.64 149.7333334 229.44 152.88C226.24 156.0266666 221.92 157.6 216.48 157.6L216.48 157.6L211.84 157.6L211.14 157.7C210.54 157.9 210.24 158.4 210.24 159.2L210.24 159.2L210.24 171.84L210.34 172.54C210.54 173.14 211.04 173.44 211.84 173.44L211.84 173.44L216.16 173.44L218.9248 173.6128C222.4576 174.0736 225.376 175.456 227.68 177.76C230.56 180.64 232 184.48 232 189.28C232 193.6533334 230.72 197.2 228.16 199.92C225.6 202.64 222.026666 204 217.44 204C213.386666 204 210.186666 202.9866666 207.84 200.96C205.493334 198.9333334 203.84 196.2133334 202.88 192.8C202.56 191.84 201.92 191.4666666 200.96 191.68L200.96 191.68L187.36 194.88L186.68 195.12C186.12 195.44 185.92 196 186.08 196.8C186.72 200.1066666 187.92 203.1733334 189.68 206C191.44 208.8266666 193.68 211.28 196.4 213.36C199.12 215.44 202.32 217.0666666 206 218.24C209.68 219.4133334 213.706666 220 218.08 220zM95.04 218.24L95.74 218.14C96.34 217.94 96.64 217.44 96.64 216.64L96.64 216.64L96.64 111.04L96.54 110.34C96.34 109.74 95.84 109.44 95.04 109.44L95.04 109.44L80.32 109.44L79.62 109.54C79.02 109.74 78.72 110.24 78.72 111.04L78.72 111.04L78.72 196.8L78.4 196.8L61.76 185.12L61.1264 184.8C60.3754666 184.544 60 184.9706666 60 186.08L60 186.08L60 202.4L60.1244444 203.2177778C60.2903704 203.7392592 60.6222222 204.2133334 61.12 204.64L61.12 204.64L78.56 217.28L79.3777778 217.8133334C79.9703704 218.0977778 80.6577778 218.24 81.44 218.24L81.44 218.24L95.04 218.24zM146.88 220C152 220 156.5333334 219.2 160.48 217.6C164.4266666 216 167.76 213.84 170.48 211.12C173.2 208.4 175.28 205.2 176.72 201.52C178.16 197.84 178.88 193.8666666 178.88 189.6C178.88 184.6933334 177.9733334 180.1866666 176.16 176.08C174.3466666 171.9733334 171.84 168 168.64 164.16L168.64 164.16L136.96 125.76L136.96 125.44L177.28 125.44L177.98 125.34C178.58 125.14 178.88 124.64 178.88 123.84L178.88 123.84L178.88 111.04L178.78 110.34C178.58 109.74 178.08 109.44 177.28 109.44L177.28 109.44L116.16 109.44L115.46 109.54C114.86 109.74 114.56 110.24 114.56 111.04L114.56 111.04L114.56 123.04L114.6488888 123.84C114.7674074 124.3377778 115.0044444 124.7644444 115.36 125.12L115.36 125.12L153.76 172.96L155.7511112 175.6266666C156.9837038 177.4044444 158.0266666 179.1822222 158.88 180.96C160.16 183.6266666 160.8 186.5066666 160.8 189.6C160.8 193.6533334 159.5466666 197.0666666 157.04 199.84C154.5333334 202.6133334 150.9866666 204 146.4 204C142.0266666 204 138.6133334 202.7733334 136.16 200.32C133.7066666 197.8666666 132.2133334 194.56 131.68 190.4C131.4666666 189.3333334 130.88 188.9066666 129.92 189.12L129.92 189.12L115.84 192L115.16 192.24C114.6 192.56 114.4 193.12 114.56 193.92C114.88 197.12 115.7866666 200.2666666 117.28 203.36C118.7733334 206.4533334 120.8533334 209.2533334 123.52 211.76C126.1866666 214.2666666 129.4666666 216.2666666 133.36 217.76C137.2533334 219.2533334 141.76 220 146.88 220z" />
    <glyph glyph-name="array-string"
      unicode="&#xF11F;"
      horiz-adv-x="320" d="M300 320C310.256716 320 318.710144 312.2791962 319.865446 302.3324225L320 300L320 20C320 9.743284 312.279196 1.289856 302.332422 0.134554L300 0L240 0C228.954306 0 220 8.954306 220 20C220 30.256716 227.720804 38.710144 237.667578 39.865446L240 40L280 40L280 280L240 280C229.743284 280 221.289856 287.7208038 220.134554 297.6675774000001L220 300C220 310.25671678 227.720804 318.7101432140001 237.667578 319.8654453734L240 320L300 320zM80 320C91.045695 320 100 311.045695 100 300C100 289.7432832 92.2791962 281.2898568 82.3324226 280.1345546L80 280L40 280L40 40L80 40C90.2567168 40 98.7101432 32.279196 99.8654454 22.332422L100 20C100 9.743284 92.2791962 1.289856 82.3324226 0.134554L80 0L20 0C9.74328322 0 1.289856786 7.720804 0.1345546266 17.667578L0 20L0 300C0 310.25671678 7.7208038 318.7101432140001 17.6675775 319.8654453734L20 320L80 320zM112.1860466 220C122.4806202 220 131.4418604 215.751938 139.0697674 207.255814C146.6976744 198.75969 150.511628 187.3178294 150.511628 172.9302326C150.511628 156.1860466 145.364341 141.1782946 135.0697674 127.9069768C124.7751938 114.635658 108.5271318 103.906976 86.3255814 95.72093L86.3255814 95.72093L86.3255814 105.023256L90.988372 106.917152C101.5697674 111.631298 110.0620156 118.410852 116.4651162 127.255814C123.7829458 137.364341 127.4418604 147.875969 127.4418604 158.7906976C127.4418604 161.1472868 127.0697674 162.883721 126.3255814 164C125.9534884 164.744186 125.4573644 165.116279 124.8372094 165.116279C124.2170542 165.116279 123.2248062 164.620155 121.8604652 163.627907C117.8914728 160.7751938 112.9302326 159.3488372 106.9767442 159.3488372C99.7829458 159.3488372 93.488372 162.2325582 88.0930232 168C82.6976744 173.7674418 80 180.620155 80 188.5581396C80 196.992248 83.1007752 204.3410852 89.3023256 210.6046512C95.503876 216.868217 103.131783 220 112.1860466 220zM201.674418 220C211.968992 220 220.930232 215.751938 228.55814 207.255814C236.186046 198.75969 240 187.3178294 240 172.9302326C240 156.1860466 234.852714 141.1782946 224.55814 127.9069768C214.263566 114.635658 198.0155038 103.906976 175.8139534 95.72093L175.8139534 95.72093L175.8139534 105.023256L180.4767442 106.917152C191.0581396 111.631298 199.5503876 118.410852 205.953488 127.255814C213.271318 137.364341 216.930232 147.875969 216.930232 158.7906976C216.930232 161.1472868 216.55814 162.883721 215.813954 164C215.44186 164.744186 214.945736 165.116279 214.325582 165.116279C213.705426 165.116279 212.713178 164.620155 211.348838 163.627907C207.379844 160.7751938 202.418604 159.3488372 196.4651162 159.3488372C189.2713178 159.3488372 182.9767442 162.2325582 177.5813954 168C172.1860466 173.7674418 169.488372 180.620155 169.488372 188.5581396C169.488372 196.992248 172.5891472 204.3410852 178.7906976 210.6046512C184.992248 216.868217 192.620155 220 201.674418 220z" />
    <glyph glyph-name="array-timestamp"
      unicode="&#xF120;"
      horiz-adv-x="320" d="M300 320C310.256716 320 318.710144 312.2791962 319.865446 302.3324225L320 300L320 20C320 9.743284 312.279196 1.289856 302.332422 0.134554L300 0L240 0C228.954306 0 220 8.954306 220 20C220 30.256716 227.720804 38.710144 237.667578 39.865446L240 40L280 40L280 280L240 280C229.743284 280 221.289856 287.7208038 220.134554 297.6675774000001L220 300C220 310.25671678 227.720804 318.7101432140001 237.667578 319.8654453734L240 320L300 320zM80 320C91.045695 320 100 311.045695 100 300C100 289.7432832 92.2791962 281.2898568 82.3324226 280.1345546L80 280L40 280L40 40L80 40C90.2567168 40 98.7101432 32.279196 99.8654454 22.332422L100 20C100 9.743284 92.2791962 1.289856 82.3324226 0.134554L80 0L20 0C9.74328322 0 1.289856786 7.720804 0.1345546266 17.667578L0 20L0 300C0 310.25671678 7.7208038 318.7101432140001 17.6675775 319.8654453734L20 320L80 320zM160 260C215.228474 260 260 215.228475 260 160C260 104.771526 215.228474 60 160 60C104.771525 60 60 104.771526 60 160C60 215.228475 104.771525 260 160 260zM160 240C115.81722 240 80 204.18278 80 160C80 115.81722 115.81722 80 160 80C204.18278 80 240 115.81722 240 160C240 204.18278 204.18278 240 160 240zM207.071068 207.0710678C210.542394 203.5997408 210.928098 198.2112528 208.228176 194.31389L207.071068 192.9289322L167.0710678 152.9289322C163.5997408 149.4576052 158.2112528 149.0719022 154.31389 151.7718232L152.9289322 152.9289322L132.9289322 172.9289322C129.0236892 176.8341752 129.0236892 183.1658248 132.9289322 187.0710678C136.4002592 190.5423948 141.7887472 190.9280978 145.68611 188.2281768L147.0710678 187.0710678L160 174.14L192.9289322 207.0710678C196.8341752 210.9763108 203.165824 210.9763108 207.071068 207.0710678z" />
    <glyph glyph-name="array"
      unicode="&#xF121;"
      horiz-adv-x="320" d="M300 320C310.256716 320 318.710144 312.2791962 319.865446 302.3324225L320 300L320 20C320 9.743284 312.279196 1.289856 302.332422 0.134554L300 0L240 0C228.954306 0 220 8.954306 220 20C220 30.256716 227.720804 38.710144 237.667578 39.865446L240 40L280 40L280 280L240 280C229.743284 280 221.289856 287.7208038 220.134554 297.6675774000001L220 300C220 310.25671678 227.720804 318.7101432140001 237.667578 319.8654453734L240 320L300 320zM80 320C91.045695 320 100 311.045695 100 300C100 289.7432832 92.2791962 281.2898568 82.3324226 280.1345546L80 280L40 280L40 40L80 40C90.2567168 40 98.7101432 32.279196 99.8654454 22.332422L100 20C100 9.743284 92.2791962 1.289856 82.3324226 0.134554L80 0L20 0C9.74328322 0 1.289856786 7.720804 0.1345546266 17.667578L0 20L0 300C0 310.25671678 7.7208038 318.7101432140001 17.6675775 319.8654453734L20 320L80 320zM160 180C171.045695 180 180 171.045695 180 160C180 148.954305 171.045695 140 160 140C148.954305 140 140 148.954305 140 160C140 171.045695 148.954305 180 160 180zM100 180C111.045695 180 120 171.045695 120 160C120 148.954305 111.045695 140 100 140C88.954305 140 80 148.954305 80 160C80 171.045695 88.954305 180 100 180zM220 180C231.045694 180 240 171.045695 240 160C240 148.954305 231.045694 140 220 140C208.954306 140 200 148.954305 200 160C200 171.045695 208.954306 180 220 180z" />
    <glyph glyph-name="arrow-bottom-left"
      unicode="&#xF122;"
      horiz-adv-x="320" d="M280 260C280 271 271 280 260 280C254.4 280 249.4 277.8 245.8 274.2L80 108.2V200C80 211 71 220 60 220S40 211 40 200V60C40 49 49 40 60 40H200C211 40 220 49 220 60C220 71 211 80 200 80H108.2L274 245.8C277.8 249.4 280 254.4 280 260z" />
    <glyph glyph-name="arrow-bottom-right"
      unicode="&#xF123;"
      horiz-adv-x="320" d="M260 220C249 220 240 211 240 200V108.2L74.2 274.2C70.6 277.8 65.6 280 60 280C49 280 40 271 40 260C40 254.4 42.2 249.4 45.8 245.8L211.8 80H120C109 80 100 71 100 60C100 49 109 40 120 40H260C271 40 280 49 280 60V200C280 211 271 220 260 220z" />
    <glyph glyph-name="arrow-down"
      unicode="&#xF124;"
      horiz-adv-x="320" d="M260 160C254 160 250 158 246 154L180 88V280C180 290 172 300 160 300S140 290 140 280V88L74 154C70 158 66 160 60 160C50 160 40 150 40 140C40 134 42 130 46 126L146 26C150 22 154 20 160 20S170 22 174 26L274 126C278 130 280 134 280 140C280 152 272 160 260 160L260 160z" />
    <glyph glyph-name="arrow-left"
      unicode="&#xF125;"
      horiz-adv-x="320" d="M279.8 180.2H88.2L154 246C157.6 249.6 159.8 254.6 159.8 260.2C159.8 271.2 150.8 280.2 139.8 280.2C134.2 280.2 129.2 278 125.6 274.4L25.6 174.4C22 170.6 19.8 165.6 19.8 160.2S22 149.6 25.6 146L125.6 46C129.2 42.4 134.2 40.2 139.8 40.2C150.8 40.2 159.8 49.2 159.8 60.2000000000001C159.8 65.8 157.6 70.8 154 74.4L88.2 140.2H280C291 140.2 300 149.2 300 160.2S290.8 180.2 279.8 180.2z" />
    <glyph glyph-name="arrow-right"
      unicode="&#xF126;"
      horiz-adv-x="320" d="M294 174.2L194 274.2C190.4 278 185.4 280.2 179.8 280.2C168.8 280.2 159.8 271.2 159.8 260.2C159.8 254.6 162 249.6 165.6 246L231.4 180.2H39.8C28.8 180.2 19.8 171.2 19.8 160.2S28.8 140.2 39.8 140.2H231.6L165.8 74.4C162.2 70.8 160 65.8 160 60.1999999999999C160 49.1999999999999 169 40.1999999999999 180 40.1999999999999C185.6 40.1999999999999 190.6 42.4 194.2 45.9999999999999L294.2000000000001 146C297.8 149.5999999999999 300 154.5999999999999 300 160.1999999999999S297.6 170.6 294 174.2z" />
    <glyph glyph-name="arrow-top-left"
      unicode="&#xF127;"
      horiz-adv-x="320" d="M274.2000000000001 74.2L108.2 240H200C211 240 220 249 220 260C220 271 211 280 200 280H60C49 280 40 271 40 260V120C40 109 49 100 60 100S80 109 80 120V211.8L245.8 46C249.4 42.2 254.4 40 260 40C271 40 280 49 280 60C280 65.6 277.8 70.6 274.2000000000001 74.2z" />
    <glyph glyph-name="arrow-top-right"
      unicode="&#xF128;"
      horiz-adv-x="320" d="M260 280H120C109 280 100 271 100 260C100 249 109 240 120 240H211.8L46 74.2C42.2 70.6 40 65.6 40 60C40 49 49 40 60 40C65.6 40 70.6 42.2 74.2 45.8L240 211.8V120C240 109 249 100 260 100S280 109 280 120V260C280 271 271 280 260 280z" />
    <glyph glyph-name="arrow-up"
      unicode="&#xF129;"
      horiz-adv-x="320" d="M274 194L174 294C170 298 166 300 160 300S150 298 146 294L46 194C42 190 40 186 40 180C40 168 50 160 60 160C66 160 70 162 74 166L140 232V40C140 28 148 20 160 20S180 28 180 40V232L246 166C250 162 254 160 260 160C272 160 280 168 280 180C280 186 278 190 274 194L274 194z" />
    <glyph glyph-name="arrows-horizontal"
      unicode="&#xF12A;"
      horiz-adv-x="320" d="M314 174L234 254C230 258 226 260 220 260C208 260 200 250 200 240C200 234 202 230 206 226L252.0000000000001 180H68L114 226C118 230 120 234 120 240C120 250 112 260 100 260C94 260 90 258 86 254L6 174C2 170 0 166 0 160S2 150 6 146L86 66C90 62 94 60 100 60C112 60 120 68 120 80C120 86 118 90 114 94L68 140H252L206 94C202 90 200 86 200 80C200 68 208 60 220 60C226 60 230 62 234 66L314 146C318 150 320 154 320 160S318 170 314 174L314 174z" />
    <glyph glyph-name="arrows-vertical"
      unicode="&#xF12B;"
      horiz-adv-x="320" d="M240 120C234 120 230 118 226 114L180 68V252L226 206C230 202 234 200 240 200C252 200 260 208 260 220C260 226 258 230 254 234L174 314C170 318 166 320 160 320S150 318 146 314L66 234C62 230 60 226 60 220C60 208 70 200 80 200C86 200 90 202 94 206L140 252V68L94 114C90 118 86 120 80 120C70 120 60 112 60 100C60 94 62 90 66 86L146 6C150 2 154 0 160 0S170 2 174 6L254 86C258 90 260 94 260 100C260 112 252 120 240 120L240 120z" />
    <glyph glyph-name="asterisk"
      unicode="&#xF12C;"
      horiz-adv-x="320" d="M290.8 96.4L291 96.8L196 160L291 223.4L290.8 223.8C296.2 227.2 300 233 300 240C300 251 291 260 280 260C275.8 260 272.2 258.4 269.2000000000001 256.4L269 256.8L180 197.4V300C180 311 171 320 160 320S140 311 140 300V197.4L51 256.6L50.8 256.4C47.8 258.4 44.2 260 40 260C29 260 20 251 20 240C20 233 23.8 227.2 29.2 223.6L29 223.4L124 160L29 96.6L29.2 96.2C23.8 92.8 20 87 20 80C20 69 29 60 40 60C44.2 60 47.8 61.6 50.8 63.6L51 63.2L140 122.6V20C140 9 149 0 160 0S180 9 180 20V122.6L269 63.4L269.2 63.8C272.2 61.6 275.8 60 280 60C291 60 300 69 300 80C300 87 296.2 92.8 290.8 96.4z" />
    <glyph glyph-name="at"
      unicode="&#xF331;"
      horiz-adv-x="320" d="M116.3196 152.5718C116.3196 122.286 128.3882 107.108 152.594 107.108C178.0568 107.108 192.0226 126.1718 194.3768 164.2974L196.7768 210.926C188.411 213.0974 179.5196 214.2174 170.034 214.2174C153.074 214.2174 139.9082 208.7088 130.4682 197.6688C121.0282 186.5832 116.3196 171.566 116.3196 152.5718M320 177.3486C320 158.7428 317.028 141.7372 311.086 126.3314C305.142 110.926 296.8 98.902 286.012 90.308C275.246 81.738 262.788 77.462 248.662 77.462C238.24 77.462 229.166 80.206 221.532 85.646C213.874 91.132 208.708 98.538 206.08 107.886H203.68C197.2114 97.76 189.2114 90.148 179.7258 85.074C170.1942 79.978 159.4972 77.462 147.6114 77.462C126.1028 77.462 109.1428 84.274 96.8 97.942C84.4342 111.588 78.2858 130.08 78.2858 153.3486C78.2858 180.16 86.4686 201.8972 102.8572 218.6286C119.2228 235.3142 141.2114 243.68 168.8228 243.68C178.8572 243.68 189.9886 242.8114 202.194 241.0742C214.4 239.3142 225.302 236.8686 234.788 233.7372L230.446 143.0172V138.3314C230.446 117.532 237.326 107.108 251.062 107.108C261.486 107.108 269.76 113.738 275.886 127.0172C282.034 140.2972 285.142 157.1886 285.142 177.76C285.142 200 280.502 219.5428 271.246 236.3886C262.012 253.2114 248.892 266.1942 231.84 275.3142000000001C214.812 284.4342000000001 195.2458 288.96 173.1658 288.96C145.0514 288.96 120.5942 283.2458000000001 99.7486 271.7942C78.9486 260.3658 63.0858 243.9772 52.1142 222.6972C41.1428 201.4628 35.68 176.7772 35.68 148.6858C35.68 110.948 45.92 81.92 66.3772 61.646C86.8572 41.348 116.2286 31.222 154.56 31.222C183.7486 31.222 214.194 37.052 245.898 48.778V16.778C218.172 5.578 187.9772 0 155.36 0C106.4458 0 68.3428 12.982 41.0286 38.902C13.69142 64.868 0 101.052 0 147.4972C0 181.4628 7.38286 211.68 22.1942 238.1486C36.9828 264.5942 57.5086 284.8458 83.7258 298.9028C109.9428 312.98286 139.6342 320 172.8 320C201.462 320 226.994 314.12572 249.348 302.44572C271.772 290.7200000000001 289.142 274.0114 301.486 252.3658C313.8520000000001 230.72 320 205.7142 320 177.3486" />
    <glyph glyph-name="automatic-updates"
      unicode="&#xF12D;"
      horiz-adv-x="320" d="M160 40C93.8 40 40 93.8 40 160C40 195.4 55.6 227.2 80 249.2V220C80 209 89 200 100 200S120 209 120 220V300C120 311 111 320 100 320H20C9 320 0 311 0 300S9 280 20 280H54.8C21.4 250.8 0 208 0 160C0 71.6 71.6 0 160 0C171 0 180 9 180 20S171 40 160 40zM160 280C181.6 280 201.6 273.8 219 263.8L248.4 293.2C223 310.2 192.8 320 160 320C149 320 140 311 140 300S149 280 160 280zM214.2 145.8L314.2000000000001 245.8C317.8 249.4 320 254.4 320 260C320 271 311 280 300 280C294.4000000000001 280 289.4000000000001 277.8 285.8 274.2L200 188.2L174.2 214.2C170.6 217.8 165.6 220 160 220C149 220 140 211 140 200C140 194.4 142.2 189.4 145.8 185.8L185.8 145.8C189.4 142.2 194.4 140 200 140S210.6 142.2 214.2 145.8zM320 160C320 171 318.8 181.6 316.8 192L279.4 154.6C277.8 121.4 263.2 91.8 240 71V100C240 111 231 120 220 120S200 111 200 100V20C200 9 209 0 220 0H300C311 0 320 9 320 20S311 40 300 40H265.2C298.6 69.2 320 112 320 160z" />
    <glyph glyph-name="axle"
      unicode="&#xF338;"
      horiz-adv-x="320" d="M20 60H40V50C40 44.478 44.4772 40 50 40C55.5228 40 60 44.478 60 50V270C60 275.5228 55.5228 280 50 280C44.4772 280 40 275.5228 40 270V260H20V60zM300 260L280 260L280 270C280 275.5228 275.522 280 270 280C264.478 280 260 275.5228 260 270L260 50C260 44.478 264.478 40 270 40C275.522 40 280 44.478 280 50L280 60L300 60L300 260zM60 200L95.777 182.1114C98.5542 180.723 101.6164 180 104.7214 180H215.278C218.384 180 221.446 180.723 224.222 182.1114L260 200V120L224.222 137.8886C221.446 139.277 218.384 140 215.278 140H104.7214C101.6164 140 98.5542 139.277 95.777 137.8886L60 120V200zM0 160C0 171.0456 8.9543 180 20 180H40V140H20C8.9543 140 0 148.9544 0 160V160zM320 160C320 148.9544 311.046 140 300 140L280 140L280 180L300 180C311.046 180 320 171.0456 320 160V160zM140 200H180A20 20 0 0 0 200 180V140A20 20 0 0 0 180 120H140A20 20 0 0 0 120 140V180A20 20 0 0 0 140 200z" />
    <glyph glyph-name="backlink"
      unicode="&#xF12E;"
      horiz-adv-x="320" d="M280 120C291.045696 120 300 111.045696 300 100C300 88.954306 291.045696 80 280 80L268.3 80L314.142136 34.142136C321.952622 26.33165 321.952622 13.66835 314.142136 5.857864C306.932456 -1.351814 295.5878360000001 -1.906406 287.742012 4.194092L285.857864 5.857864L240 51.7L240 40C240 28.954306 231.045696 20 220 20C208.954306 20 200 28.954306 200 40L200.055758 101.50477L200.305626 103.49415L200.548454 104.670282L201.197892 106.83333L201.873468 108.46443L202.91991 110.414176L204.258554 112.340446L205.858218 114.142816C206.565746 114.850016 207.313488 115.49374 208.093868 116.073308L210.318758 117.506576L213.166992 118.802282L214.68014 119.283098L216.506916 119.694566L218.814968 119.965078L280 120zM120.716662 197.284882L51.7157288 128.2842712L49.3790738 125.7399758C36.1380284 110.024228 36.9169134 86.514544 51.7157288 71.715728C66.514544 56.916914 90.0242272 56.138028 105.7399758 69.379074L108.2842712 71.715728L177.2902504 140.6965488C184.054787 115.339858 178.1542358 87.307152 159.588597 66.618918L156.5685424 63.431458L136.5685424 43.431458C105.3265992 12.189514 54.6734008 12.189514 23.4314576 43.431458C-6.76908772 73.632002 -7.77577256 121.9712874 20.411403 153.3810818L23.4314576 156.5685424L43.4314576 176.5685424C64.369871 197.506956 94.0272526 204.4124026 120.716662 197.284882zM214.142136 234.1421356C221.351814 226.9324564 221.906406 215.5878352 215.805908 207.7420112L214.142136 205.8578644L114.1421356 105.857864C106.3316498 98.047378 93.6683502 98.047378 85.8578644 105.857864C78.6481852 113.067544 78.0935944 124.4121648 84.1940922 132.2579888L85.8578644 134.1421356L185.8578644 234.1421356C193.6683502 241.9526214 206.33165 241.9526214 214.142136 234.1421356zM276.5685420000001 296.5685424C306.769088 266.3679972 307.775772 218.0287126 279.588598 186.6189182L276.5685420000001 183.4314576L256.5685420000001 163.4314576C235.635388 142.4983036 205.987646 135.5910676 179.3034512 142.7097496L248.284272 211.7157288L250.620926 214.2600242C263.8619720000001 229.9757728 263.083086 253.485456 248.284272 268.2842712C233.485456 283.0830866 209.975772 283.8619716 194.2600242 270.6209262L191.7157288 268.2842712L122.715118 199.283338C115.9420936 224.6453164 121.8408552 252.687377 140.411403 273.3810818L143.4314576 276.5685424L163.4314576 296.5685424C194.6734008 327.81048584 245.3266 327.81048584 276.5685420000001 296.5685424z" />
    <glyph glyph-name="backward-ten"
      unicode="&#xF35C;"
      horiz-adv-x="320" d="M160.0432 0C140.6104 0 122.3942 3.704 105.3944 11.114C88.3946 18.524 73.588 28.586 60.9744 41.3C48.3608 54.014 38.3784 68.94 31.0268 86.074C23.6756 103.21 20 121.486 20 140.9044C20 146.3756 21.8994 151.0254 25.698 154.854C29.4966 158.683 34.1098 160.5974 39.5378 160.5974C44.9658 160.5974 49.579 158.683 53.3776 154.854C57.1762 151.0254 59.0756 146.3756 59.0756 140.9044C59.0756 112.624 68.8676 88.634 88.4518 68.936C108.0358 49.236 131.8852 39.386 160 39.386C188.1148 39.386 211.964 49.256 231.548 68.996C251.132 88.736 260.9240000000001 112.776 260.9240000000001 141.1144C260.9240000000001 169.3942 251.084 193.3838 231.402 213.0832C211.72 232.7824 187.8504 242.6322 159.7918 242.6322H157.3716L167.196 232.7292C170.423 229.4768 172.0098 225.6238 171.9562 221.1702C171.9028 216.717 170.3162 212.864 167.196 209.6112C163.9692 206.3588 160.0506 204.7056 155.44 204.6516C150.8294 204.5978 146.9106 206.1972 143.6836 209.45L105.0898 248.351C101.1684 252.3546 99.2076 257.0256 99.2076 262.3634C99.2076 267.7016 101.1684 272.347 105.0898 276.2996L143.6836 315.2006600000001C146.9106 318.45333 150.8294 320.052678 155.44 319.998677194C160.0506 319.9449242 163.9692 318.221722 167.196 314.82908C170.3162 311.57666 171.8682 307.68872 171.8522 303.1653C171.8362 298.6418 170.2148 294.7538 166.9878 291.5012L157.58 282.0184H159.7918C179.2348 282.0184 197.4464 278.3136 214.426 270.9038C231.406 263.4940000000001 246.238 253.4322 258.922 240.7182C271.604 228.004 281.622 213.1102 288.9720000000001 196.0368C296.324 178.9632 300 160.6516 300 141.1018C300 121.5518 296.324 103.21 288.9720000000001 86.074C281.622 68.94 271.64 54.014 259.026 41.3C246.412 28.586 231.62 18.524 214.648 11.114C197.6774 3.704 179.4756 0 160.0432 0zM200 160H180V100H200V160zM180 180C168.9544 180 160 171.0456 160 160V100C160 88.954 168.9544 80 180 80H200C211.046 80 220 88.954 220 100V160C220 171.0456 211.046 180 200 180H180zM110 180C104.4772 180 100 175.5228 100 170C100 164.4772 104.4772 160 110 160H120V90C120 84.478 124.4772 80 130 80C135.5228 80 140 84.478 140 90V160C140 171.0456 131.0456 180 120 180H110z" />
    <glyph glyph-name="badge"
      unicode="&#xF12F;"
      horiz-adv-x="320" d="M267.2 228.2C264.2 250.8 277.2 268.4 289.2 285.6L268.6 309.4C234.2 291.8 186.2 296.4 156 320C125.8 296.4 77.8 291.8 43.4 309.6L22.8 285.6C35 268.4 47.8 250.8 44.8 228.2C38.8 182.4 -4.2 144.8 18.4 94.6C27.4 71.8 47.2 56.6 72.8 50.6C104 43.4 143.2 36.2 156 0C168.8 36.2 208 43.2 239.2 50.8C264.8 56.8 284.6 72 293.6 94.8C316 144.8 273 182.4 267.2 228.2z" />
    <glyph glyph-name="ban-circle"
      unicode="&#xF130;"
      horiz-adv-x="320" d="M160 320C71.6 320 0 248.4 0 160S71.6 0 160 0S320 71.6 320 160S248.4 320 160 320zM220 140H100C89 140 80 149 80 160C80 171 89 180 100 180H220C231 180 240 171 240 160C240 149 231 140 220 140z" />
    <glyph glyph-name="bank-account"
      unicode="&#xF131;"
      horiz-adv-x="320" d="M307.2 190.8L294.8 193.6C288.6 216 275.2 236.6 257.4000000000001 253.4L265.4000000000001 288.8C267.2000000000001 295.4 261.8 301 255.6 300C238.6 298.2 223.6 291.6 212.8 280.4C196 286.8 175.4 290.6 155.8 290.6C106 290.6 63.2 267.2 37.4 232.8C33.8 233.6 30.2 234.6 26.8 234.6C11.6 234.6 0 222.4 0 206.6C0 195.4 6.2 186 15.2 181.4C14.2 174.8 13.4 167.4 13.4 160C13.4 126.4 27.6 96.6 50 73.2L44.6 41.4C42.8 30.2 51.6 20 62.4 20H74C83 20 90 26.6 91.8 35.8L92.6 43.2C111.4 34.8 132.6 29.2 155.8 29.2C178 29.2 200.4 33.8 219 43.2L220 35.8C221.8 26.4 229 20 237.8 20H249.4C260 20 269 30.2 267.2000000000001 41.4L261.8 72.2C274.2000000000001 84.4 283.2000000000001 99.2 289.4000000000001 115.2L305.4000000000001 119C313.4000000000001 120.8 319.6000000000001 128.4 319.6000000000001 137.6V172C321.4 181.4 315.2 188.8 307.2 190.8zM240 160C228 160 220 174 220 190S228 220 240 220S260 206 260 190S252 160 240 160zM124.2 221.6C116 217.6 106 220.8 101.8 228.8C97.6 236.8 101 246.4 109.2 250.2C136.2 263.2 163.8 263.2 190.8 250.2C199 246.2 202.4 236.6 198.2 228.8C194 220.8 184 217.6 175.8 221.6C158.4 230.2 141.6 230.2 124.2 221.6z" />
    <glyph glyph-name="barcode"
      unicode="&#xF132;"
      horiz-adv-x="320" d="M0 40H40V280H0V40zM120 40H140V280H120V40zM160 40H180V280H160V40zM60 40H100V280H60V40zM300 280V40H320V280H300zM200 40H220V280H200V40zM240 40H280V280H240V40z" />
    <glyph glyph-name="binary-number"
      unicode="&#xF357;"
      horiz-adv-x="320" d="M140.08 232.3076C133.1866 237.4358 124.24 240 113.24 240C102.24 240 93.22 237.4358 86.18 232.3076C79.2866 227.326 73.86 220.8792 69.9 212.967C66.0866 205.2014 63.4466 196.63 61.98 187.2528C60.66 177.8754 60 168.7912 60 160C60 151.2088 60.66 142.1246 61.98 132.7472C63.4466 123.37 66.0866 114.726 69.9 106.814C73.86 99.048 79.2866 92.6 86.18 87.472C93.22 82.49 102.24 80 113.24 80C124.24 80 133.1866 82.49 140.08 87.472C147.12 92.6 152.5466 99.048 156.36 106.814C160.32 114.726 162.96 123.37 164.28 132.7472C165.7466 142.1246 166.48 151.2088 166.48 160C166.48 168.7912 165.7466 177.8754 164.28 187.2528C162.96 196.63 160.32 205.2014 156.36 212.967C152.5466 220.8792 147.12 227.326 140.08 232.3076zM126.88 105.494C123.2134 102.418 118.6666 100.88 113.24 100.88C107.6666 100.88 103.0466 102.418 99.38 105.494C95.86 108.718 93 112.968 90.8 118.242C88.7466 123.663 87.28 129.9634 86.4 137.1428C85.52 144.3224 85.08 151.9414 85.08 160C85.08 168.0586 85.52 175.6044 86.4 182.6374C87.28 189.8168 88.7466 196.1172 90.8 201.5384C93 206.9598 95.86 211.2088 99.38 214.2858C103.0466 217.5092 107.6666 219.1208 113.24 219.1208C118.6666 219.1208 123.2134 217.5092 126.88 214.2858C130.5466 211.2088 133.4066 206.9598 135.46 201.5384C137.66 196.1172 139.2 189.8168 140.08 182.6374C140.96 175.6044 141.4 168.0586 141.4 160C141.4 151.9414 140.96 144.3224 140.08 137.1428C139.2 129.9634 137.66 123.663 135.46 118.242C133.4066 112.968 130.5466 108.718 126.88 105.494zM216.016 214.8572C210.83 213.9428 205.492 213.4858 200 213.4858V192.9142H239.354V80H267.954V240H246.676C245.76 235.1238 243.778 231.0096 240.726 227.6572C237.8280000000001 224.3048 234.244 221.5618 229.972 219.4286C225.854 217.2952 221.202 215.7714 216.016 214.8572z" />
    <glyph glyph-name="blank"
      unicode="&#xF133;"
      horiz-adv-x="320" d="" />
    <glyph glyph-name="blocked-person"
      unicode="&#xF134;"
      horiz-adv-x="320" d="M187.8 66.2C163.8 76.8 167 83.2 166.2 92C166 93.4 166 94.6 165.8 96C174 103.4 180.8 113.4 185.2 124.8C185.2 124.8 185.4 125.4 185.4 125.6C186.4 128.2 187.2 130.8 188 133.4C193.4 134.6 196.6 140.6 198 146C198.2 146.6 198.6 147.6 199 148.4C163.6 164 138.8 199.2 138.8 240C138.8 246.4 139.6 252.4 140.6 258.4C137.2 259 133.6 260 130.4 260C117.4 260 103 256 92.8 248.2C82.8 240.6 75.4 229.8 71.8 218C71 215.2 70.4 212.6 70 209.8C68.2 200.2 67.2 185.2 67.2 175C67.2 174.6 67.2 174.2 67.2 173.8C63.4 172.2 60 168.4 59.2 160.2C58.6 154 61.2 148.4 62.4 146.2C63.6 140.6 67 134.4 72.6 133.4C73.4 130.6 74.2 128 75.2 125.6C75.2 125.4 75.4 125.2 75.4 125.2L75.4 125C79.8 113.2 86.8 103 95.2 95.8C95.2 94.6 95 93.4 95 92.4C94.2 83.6 96.6 77.2 72.6 66.6C48.6 56 12.4 44.6 5 27.6C-2.4 10 0.6 0 0.6 0H259.8C259.8 0 262.8 10 255.4 27.2C248 44.2 211.8 55.6 187.8 66.2zM239.4 320C195 320 158.8 284.2 158.8 240C158.8 195.8 194.8 160 239.4 160S320 195.8 320 240C320 284.2 284 320 239.4 320zM199.2 240C199.2 262 217.2 280 239.4 280C246.8 280 253.8 277.8 259.8 274.4L204.8 219.8C201.4 225.8 199.2 232.6 199.2 240zM239.4 200C232.0000000000001 200 225 202.2 219 205.6L274 260.2C277.6 254.2 279.6 247.4 279.6 240C279.8 218 261.6 200 239.4 200z" />
    <glyph glyph-name="bold"
      unicode="&#xF135;"
      horiz-adv-x="320" d="M234 180C238 188 240 200 240 210C240 212 240 216 240 218C240 220 240 220 240 220C240 222 240 224 238 226C238 226 238 228 238 228C228 258 202 280 170 280H80C70 280 60 272 60 260V60C60 50 68 40 80 40H180C224 40 260 76 260 120C260 144 250 166 234 180zM120 220H160C172 220 180 212 180 200S172 180 160 180H120V220zM180 100H120V140H180C192 140 200 132 200 120S192 100 180 100z" />
    <glyph glyph-name="book"
      unicode="&#xF136;"
      horiz-adv-x="320" d="M40 300V20C40 9 49 0 60 0H80V320H60C49 320 40 311 40 300zM260 320H240V180L200 220L160 180V320H100V0H260C271 0 280 9 280 20V300C280 311 271 320 260 320z" />
    <glyph glyph-name="bookmark"
      unicode="&#xF137;"
      horiz-adv-x="320" d="M224 319.8H221C220.6 319.8 220.4 320 220 320H100C99.6 320 99.4 319.8 99 319.8H96C87.2 319.8 80 312.4 80 303.4V8.4C80 -0.6 85 -2.8 91.4 3.6L148.8 62.4C155 68.8 165.2 68.8 171.4 62.4L228.8 3.6C235.0000000000001 -2.8 240.2000000000001 -0.6 240.2000000000001 8.4V303.4C240 312.4 232.8 319.8 224 319.8z" />
    <glyph glyph-name="box"
      unicode="&#xF138;"
      horiz-adv-x="320" d="M120 120H200C211 120 220 129 220 140C220 151 211 160 200 160H120C109 160 100 151 100 140C100 129 109 120 120 120zM318.6 207.4L318.6 207.4L318.6 207.8C318.6 207.8 318.6 207.8 318.6 207.8L278.8 307.4L278.8 307.4C275.6 314.8 268.4 320 260 320H60C51.6 320 44.4 314.8 41.4 307.4L41.4 307.4L1.6 207.8C1.6 207.8 1.6 207.8 1.6 207.8L1.4 207.4L1.4 207.4C0.6 205.2 0 202.6 0 200V20C0 9 9 0 20 0H300C311 0 320 9 320 20V200C320 202.6 319.4000000000001 205.2 318.6 207.4zM180 280H246.4L270.4 220H180V280zM73.6 280H140V220H49.6L73.6 280zM280 40H40V180H280V40z" />
    <glyph glyph-name="briefcase"
      unicode="&#xF139;"
      horiz-adv-x="320" d="M300 240.4H240V280.4C240 291.4 231 300.4 220 300.4H100C89 300.4 80 291.4 80 280.4V240.4H20C9 240.4 0 231.4 0 220.4V140.4H60V160.4H100V140.4H220V160.4H260V140.4H320V220.4C320 231.4 311 240.4 300 240.4zM200 240.4H120V260.4H200V240.4zM260 100.4H220V120.4H100V100.4H60V120.4H0V40.4C0 29.4 9 20.4 20 20.4H300C311 20.4 320 29.4 320 40.4V120.4H260V100.4z" />
    <glyph glyph-name="bring-data"
      unicode="&#xF13A;"
      horiz-adv-x="320" d="M280 40C291.045694 40 300 31.045694 300 20C300 8.954306 291.045694 0 280 0L40 0C28.954305 0 20 8.954306 20 20C20 31.045694 28.954305 40 40 40L280 40zM159.9 259.9C170.9 259.9 179.9 250.908991 179.9 239.91998L179.9 239.91998L179.9 128.2316684L205.7 154.0058942C209.3 157.6022978 214.3 159.8001 219.9 159.8001C230.9 159.8001 239.9 150.809091 239.9 139.82008C239.9 134.2256744 237.7 129.2306694 234.1 125.6342658L234.1 125.6342658L174.1 65.694206C170.5 62.097802 165.3 59.9 159.9 59.9C154.5 59.9 149.5 62.097802 145.7 65.694206L145.7 65.694206L85.7 125.6342658C82.1 129.2306694 79.9 134.2256744 79.9 139.82008C79.9 150.809091 88.9 159.8001 99.9 159.8001C105.5 159.8001 110.5 157.6022978 114.1 154.0058942L114.1 154.0058942L139.9 128.2316684L139.9 239.7201798C139.9 250.7091908 148.9 259.9 159.9 259.9zM280 320C291.045694 320 300 311.045695 300 300C300 288.954305 291.045694 280 280 280C268.9543060000001 280 260 288.954305 260 300C260 311.045695 268.9543060000001 320 280 320zM220 320C231.045694 320 240 311.045695 240 300C240 288.954305 231.045694 280 220 280C208.954306 280 200 288.954305 200 300C200 311.045695 208.954306 320 220 320zM160 320C171.045695 320 180 311.045695 180 300C180 288.954305 171.045695 280 160 280C148.954305 280 140 288.954305 140 300C140 311.045695 148.954305 320 160 320zM100 320C111.045695 320 120 311.045695 120 300C120 288.954305 111.045695 280 100 280C88.954305 280 80 288.954305 80 300C80 311.045695 88.954305 320 100 320zM40 320C51.045695 320 60 311.045695 60 300C60 288.954305 51.045695 280 40 280C28.954305 280 20 288.954305 20 300C20 311.045695 28.954305 320 40 320z" />
    <glyph glyph-name="bring-forward"
      unicode="&#xF354;"
      horiz-adv-x="320" d="M173.9412 314.2C170.3436 317.8 165.3466 320 159.95 320C154.5534 320 149.3566 317.8 145.7588 314.2L85.7964 254.4C82.1986 250.6 80 245.6 80 240.2C80 229.2 88.9944 220.2 99.9876 220.2C105.584 220.2 110.5808 222.4 114.1786 226L139.9626 251.8C139.9626 227.8668 140 203.9338 140 180.0006H20C8.9543 180.0006 0 171.0462 0 160.0006C0 148.9548 8.9543 140.0006 20 140.0006H140V100H20C8.9543 100 0 91.046 0 80V40C0 28.954 8.9543 20 20 20H300C311.046 20 320 28.954 320 40V80C320 91.046 311.046 100 300 100H180V140.0006H300C311.046 140.0006 320 148.9548 320 160.0006C320 171.0462 311.046 180.0006 300 180.0006H180L180 251.7162H179.9376V251.8L205.722 226C209.32 222.4 214.316 220.2 219.712 220.2C230.706 220.2 239.7 229.2 239.7 240.2C239.7 245.8 237.502 250.8 233.904 254.4L173.9412 314.2z" />
    <glyph glyph-name="bug"
      unicode="&#xF32E;"
      horiz-adv-x="320" d="M100 260.0074C100.004 293.141 126.8654 320 160 320C193.1346 320 219.996 293.141 220 260.0072C231.794 251.149 241.564 239.744 248.496 226.609L260 232.3606V260C260 271.0456 268.954 280 280 280C291.046 280 300 271.0456 300 260V220C300 212.4246 295.72 205.4992 288.944 202.1114L259.722 187.5008C259.906 185.0246 260 182.5232 260 180V160H300C311.046 160 320 151.0458 320 140C320 128.9542 311.046 120 300 120H260C260 109.996 258.5320000000001 100.336 255.798 91.222L287.428 78.57C295.02 75.532 300 68.178 300 60V20C300 8.954 291.046 0 280 0C268.954 0 260 8.954 260 20V46.46L236.668 55.792C218.324 33.912 190.7864 20 160 20C129.2136 20 101.6766 33.912 83.3328 55.792L60 46.46V20C60 8.954 51.0456 0 40 0C28.9544 0 20 8.954 20 20V60C20 68.178 24.979 75.532 32.5722 78.57L64.203 91.222C61.469 100.336 60 109.996 60 120H20C8.9543 120 0 128.9542 0 140C0 151.0458 8.9543 160 20 160H60V180C60 182.5232 60.0934 185.0246 60.277 187.5008L31.0558 202.1114C24.28 205.4992 20 212.4246 20 220V260C20 271.0456 28.9544 280 40 280C51.0456 280 60 271.0456 60 260V232.3606L71.5034 226.609C78.4358 239.7442 88.2068 251.149 100 260.0074zM100 140V120C100 86.862 126.863 60 160 60C193.137 60 220 86.862 220 120V140V180C220 213.137 193.137 240 160 240C126.863 240 100 213.137 100 180V140z" />
    <glyph glyph-name="buggy"
      unicode="&#xF13B;"
      horiz-adv-x="320" d="M278.57 307.42704C275.23 315.7762 266.728 320.8699460000001 257.79 319.8769104L77.791 299.877C71.5872 299.1876 66.0612 295.6414 62.8498 290.2892L8.61942 199.9054C3.7502 199.2326 0.000610352 195.0542 0.000610352 190V130C0.000610352 124.477 4.47776 120 10.00062 120H65.9694C72.7816 120 79.3908 117.682 84.7102 113.426L123.7536 82.192C125.5268 80.772 127.7298 80 130.0006 80H200C203.148 80 206.112 81.482 208 84L226 108C231.666 115.554 240.558 120 250 120H310C315.524 120 320 124.477 320 130V210C320 213.0566 318.602 215.9456 316.206 217.8422C315.478 218.417 314.684 218.8816 313.848 219.2304L278.57 307.42704zM247.21 278.12L247.082 278.4408L183.7658 271.4058L206.188 209.7472L247.21 278.12zM256.54 254.796L223.57 199.847L273.774 211.7128L256.54 254.796zM192.0584 190.0774L163.311 269.133L92.0532 261.2154L55.3238 200H70.0006C72.7862 200 75.4456 198.838 77.3382 196.794L124.3692 146.0004H162.6482L191.6796 189.5474C191.8004 189.7286 191.9268 189.9054 192.0584 190.0774zM50 0C77.6142 0 100 22.386 100 50C100 77.614 77.6142 100 50 100C22.3858 100 0 77.614 0 50C0 22.386 22.3858 0 50 0zM270 0C297.614 0 320 22.386 320 50C320 77.614 297.614 100 270 100C242.386 100 220 77.614 220 50C220 22.386 242.386 0 270 0z" />
    <glyph glyph-name="build"
      unicode="&#xF13C;"
      horiz-adv-x="320" d="M307.8 71.8L154 200L175.4 222C182.2 228.8 173 234.6 177.8 247.2C195.4 290.6 246 294.2 246 294.2S253.2 301.6 260.2 308.6C194.8 336.2 150.6 309.4 130.8 292L62.4 222L48.2 207.6C40.4 199.6 40.4 186.6 48.2 178.6L34.2 164.2C26.4 172.2 13.8 172.2 6 164.2S-1.8 143.2 6 135.2L34.2 106.2C42 98.2 54.6 98.2 62.4 106.2S70.2 127.2 62.4 135.2L76.6 149.6C84.4 141.6 97 141.6 104.8 149.6L120.8 166L248.6 12.6C265 -3.8 291.4 -3.8 307.8 12.6C324 29 324 55.6 307.8 71.8z" />
    <glyph glyph-name="bullseye"
      unicode="&#xF359;"
      horiz-adv-x="320" d="M315.184 293.0154C322.374 284.629 321.402 272.003 313.016 264.8146L173.0156 144.8146C164.629 137.626 152.003 138.5974 144.8146 146.9838C137.6262 155.3704 138.5974 167.9964 146.984 175.1848L286.984 295.1848C295.37 302.37322 307.9960000000001 301.40198 315.184 293.0154zM160 40C226.274 40 280 93.726 280 160C280 175.2596 277.152 189.854 271.958 203.2804L303.6840000000001 230.4738C314.132 209.2112 320 185.2908 320 160C320 71.634 248.366 0 160 0C71.6344 0 0 71.634 0 160C0 248.3656 71.6344 320 160 320C194.0706 320 225.654 309.3509 251.602 291.1996L219.884 264.0126C202.26 274.1818 181.8098 280 160 280C93.7258 280 40 226.2742 40 160C40 93.726 93.7258 40 160 40zM186.5906 235.4748C178.2712 238.4056 169.3218 240 160 240C115.8172 240 80 204.1828 80 160C80 115.818 115.8172 80 160 80C204.182 80 240 115.818 240 160C240 165.0314 239.536 169.9544 238.648 174.7284L186.1714 129.7492C184.9726 128.7112 183.7114 127.7432 182.3944 126.8516C175.0432 121.8718 166.4856 119.638 158.0698 120.0458C153.045 120.2846 148.2628 121.4504 143.8908 123.3762C138.5648 125.7144 133.6678 129.2558 129.6292 133.9676C129.5558 134.0534 129.4826 134.1394 129.41 134.2256C128.8644 134.8724 128.339 135.5368 127.8346 136.2178C122.2274 143.7852 119.6672 152.7834 120.033 161.6412C120.2478 166.9626 121.5022 172.016 123.5984 176.6042C126.0684 182.0104 129.7072 186.7704 134.1916 190.5614L186.5906 235.4748z" />
    <glyph glyph-name="calculator"
      unicode="&#xF13D;"
      horiz-adv-x="320" d="M260 320H60C49 320 40 311 40 300V20C40 9 49 0 60 0H260C271 0 280 9 280 20V300C280 311 271 320 260 320zM120 40H80V80H120V40zM120 100H80V140H120V100zM120 160H80V200H120V160zM180 40H140V80H180V40zM180 100H140V140H180V100zM180 160H140V200H180V160zM240 40H200V140H240V40zM240 160H200V200H240V160zM240 220H80V280H240V220z" />
    <glyph glyph-name="calendar"
      unicode="&#xF13E;"
      horiz-adv-x="320" d="M220 260C232 260 240 270 240 280L240 300C240 312 232 320 220 320C208 320 200 312 200 300L200 280C200 270 208 260 220 260zM280 300L260 300L260 280C260 258 242 240 220 240C198 240 180 258 180 280L180 300L120 300L120 280C120 258 102 240 80 240C58 240 40 258 40 280L40 300L20 300C8 300 0 290 0 280L0 40C0 28 8 20 20 20L280 20C292 20 300 28 300 40L300 280C300 292 290 300 280 300zM100 60L40 60L40 120L100 120L100 60zM100 140L40 140L40 200L100 200L100 140zM180 60L120 60L120 120L180 120L180 60zM180 140L120 140L120 200L180 200L180 140zM260 60L200 60L200 120L260 120L260 60zM260 140L200 140L200 200L260 200L260 140zM80 260C92 260 100 270 100 280L100 300C100 312 92 320 80 320C68 320 60 312 60 300L60 280C60 270 68 260 80 260z" />
    <glyph glyph-name="camera"
      unicode="&#xF13F;"
      horiz-adv-x="320" d="M300 260H248.2L214 294.2C210.6 297.8 205.6 300 200 300H120C114.4 300 109.4 297.8 105.8 294.2L71.8 260H20C9 260 0 251 0 240V100C0 89 9 80 20 80H71.2C93.2 55.6 124.6 40 160 40S226.8 55.6 248.8 80H300C311 80 320 89 320 100V240C320 251 311 260 300 260zM60 200H20V220H60V200zM160 80C115.8 80 80 115.8 80 160C80 204.2 115.8 240 160 240S240 204.2 240 160C240 115.8 204.2 80 160 80zM160 200C138 200 120 182 120 160C120 138 138 120 160 120S200 138 200 160C200 182 182 200 160 200z" />
    <glyph glyph-name="caret-down"
      unicode="&#xF140;"
      horiz-adv-x="320" d="M240 190C240 195.6 235.6 200 230 200H90C84.4 200 80 195.6 80 190C80 187.4 81 185.2 82.6 183.4C82.6 183.4 82.6 183.4 82.6 183.4L152.6 103.4L152.6 103.4C154.4 101.4 157 100 160 100S165.6 101.4 167.4 103.4L167.4 103.4L237.4 183.4L237.4 183.4C239 185.2 240 187.4 240 190z" />
    <glyph glyph-name="caret-left"
      unicode="&#xF141;"
      horiz-adv-x="320" d="M190 240C187.4 240 185.2 239 183.4 237.4C183.4 237.4 183.4 237.4 183.4 237.4L103.4 167.4L103.4 167.4C101.4 165.6 100 163 100 160S101.4 154.4 103.4 152.6L103.4 152.6L183.4 82.6L183.4 82.6C185.2 81 187.4 80 190 80C195.6 80 200 84.4 200 90V230C200 235.6 195.6 240 190 240z" />
    <glyph glyph-name="caret-right"
      unicode="&#xF142;"
      horiz-adv-x="320" d="M220 160C220 163 218.6 165.6 216.6 167.4L216.6 167.4L136.6 237.4L136.6 237.4C134.8 239 132.6 240 130 240C124.4 240 120 235.6 120 230V90C120 84.4 124.4 80 130 80C132.6 80 134.8 81 136.6 82.6C136.6 82.6 136.6 82.6 136.6 82.6L216.6 152.6L216.6 152.6C218.6 154.4 220 157 220 160z" />
    <glyph glyph-name="caret-up"
      unicode="&#xF143;"
      horiz-adv-x="320" d="M237.4 136.6C237.4 136.6 237.6 136.6 237.4 136.6L167.4 216.6L167.4 216.6C165.6 218.6 163 220 160 220S154.4 218.6 152.6 216.6L152.6 216.6L82.6 136.6L82.6 136.6C81 134.8 80 132.6 80 130C80 124.4 84.4 120 90 120H230C235.6 120 240 124.4 240 130C240 132.6 239 134.8 237.4 136.6z" />
    <glyph glyph-name="cargo-ship"
      unicode="&#xF144;"
      horiz-adv-x="320" d="M200 300H260C271.046 300 280 291.0456 280 280V240H200V300zM45 240C42.2386 240 40 237.7614 40 235V140H17.66224C9.8893 140 5.08816 131.5202 9.0873 124.855L30.5222 89.13C34.6614 82.232 40.0662 76.356 46.3398 71.726C38.4294 70.65 29.665 70 20 70C14.47716 70 10 65.522 10 60C10 54.478 14.47716 50 20 50C61.3326 50 88.2864 60.868 103.2258 68.332C114.2246 60.878 133.3252 50 160 50C186.4074 50 205.392 60.66 216.44 68.106L216.528 68.06C220.436 65.966 226.138 63.26 233.636 60.582C248.648 55.222 270.784 50 300 50C305.522 50 310 54.478 310 60C310 65.522 305.522 70 300 70C293.486 70 287.382 70.282 281.688 70.778C291.096 77.334 298.636 86.59 303.086 97.716L314.514 126.286C317.142 132.8548 312.304 140 305.23 140H80V235C80 237.7614 77.7614 240 75 240H45zM99.2778 48.814C102.6322 50.612 106.7158 50.35 109.8124 48.138C118.9116 41.638 135.355 30 160 30C184.645 30 201.088 41.638 210.188 48.138C213.652 50.612 218.3 50.62 221.772 48.166L221.892 48.084C222.026 47.996 222.612 47.62 222.612 47.62C223.306 47.188 224.426 46.518 225.972 45.69C229.064 44.034 233.862 41.74 240.364 39.418C253.352 34.778 273.216 30 300 30C305.522 30 310 25.522 310 20C310 14.478 305.522 10 300 10C270.784 10 248.648 15.222 233.636 20.582C226.138 23.26 220.436 25.966 216.528 28.06L216.44 28.106C205.392 20.66 186.4074 10 160 10C133.3252 10 114.2246 20.878 103.2258 28.332C88.2864 20.868 61.3326 10 20 10C14.47716 10 10 14.478 10 20C10 25.522 14.47716 30 20 30C62.5732 30 87.6712 42.596 99.2778 48.814zM280 220H200V160H260C271.046 160 280 168.9544 280 180V220zM100 280C100 291.0456 108.9544 300 120 300H180V240H100V280zM180 220H100V180C100 168.9544 108.9544 160 120 160H180V220z" />
    <glyph glyph-name="cell-tower"
      unicode="&#xF145;"
      horiz-adv-x="320" d="M179.4 184.8C179.2 185.8 178.6 186.4 178.2 187.4C177.8 188.4 177.6 189.4 177.2 190.4C178.8 193.2 180 196.4 180 200C180 211 171 220 160 220S140 211 140 200C140 196.4 141.2 193.2 142.8 190.4C142.2 189.4 142.2 188.4 141.8 187.4C141.4 186.4 140.8 185.8 140.6 184.8L100.6 24.8C98 14 104.4 3.2 115.2 0.6C126 -1.9999999999999 136.8 4.4 139.4 15.2L150.6 60H169.4L180.6 15.2C183.2000000000001 4.4 194.2 -2 204.8000000000001 0.6C215.6 3.2 222 14.2 219.4 24.8L179.4 184.8zM74.4 286C82 294 81.8 306.6 74 314.4S53.4 321.8 45.6 314C-15.4 251.6 -15.4 148.4 45.6 86C53.4 78 66 78 73.8 85.6S81.8 106 74.2 113.8C28.6 160.8 28.6 239.2 74.4 286zM232 256C223.2 262.6 210.6 260.8 204 252C197.4 243.2 199.2 230.6 208 224C216.6 217.6 218.6 184.8 207.2 175.4C198.8 168.4 197.6 155.8 204.6 147.2C211.6 138.8 224.2 137.6 232.8 144.6C264.6 171.2 260.6 234.6 232 256zM274.4000000000001 314C266.6 322 254.0000000000001 322 246.2 314.4S238 294 245.6 286C291.4 239.2 291.4 160.8 245.6 114C237.8 106.2 238 93.4 246 85.8S266.6 78.2 274.2 86.2C335.2000000000001 148.4 335.2000000000001 251.6 274.4000000000001 314zM108 175.4C96.6 184.8 98.6 217.6 107.2 224C116 230.6 117.8 243.2 111.2 252S92 262.6 83.2 256C54.4 234.6 50.6 171.2 82.4 144.6C90.8 137.6 103.4 138.6 110.6 147.2C117.6 155.6 116.4 168.4 108 175.4z" />
    <glyph glyph-name="changes"
      unicode="&#xF146;"
      horiz-adv-x="320" d="M165.8 165.8L225.8 105.8C229.4 102.2 234.4 100 240 100S250.6 102.2 254.2 105.8L314.2000000000001 165.8C317.8 169.4 320 174.4 320 180C320 191 311 200 300 200C294.4000000000001 200 289.4000000000001 197.8 285.8 194.2L260 168.2V300C260 311 251 320 240 320S220 311 220 300V168.2L194.2 194.2C190.6 197.8 185.6 200 180 200C169 200 160 191 160 180C160 174.4 162.2 169.4 165.8 165.8zM290 60H30C13.4 60 0 46.6 0 30S13.4 0 30 0H290C306.6 0 320 13.4 320 30S306.6 60 290 60zM20 220C25.6 220 30.6 222.2 34.2 225.8L60 251.8V120C60 109 69 100 80 100S100 109 100 120V251.8L125.8 226C129.4 222.2 134.4 220 140 220C151 220 160 229 160 240C160 245.6 157.8 250.6 154.2 254.2L94.2 314.2C90.6 317.8 85.6 320 80 320S69.4 317.8 65.8 314.2L5.8 254.2C2.2 250.6 0 245.6 0 240C0 229 9 220 20 220z" />
    <glyph glyph-name="chart"
      unicode="&#xF147;"
      horiz-adv-x="320" d="M0 20C0 9 9 0 20 0H60C71 0 80 9 80 20V132L0 100V20zM120 130V20C120 9 129 0 140 0H180C191 0 200 9 200 20V120L180 100L120 130zM260 180L240 160V20C240 9 249 0 260 0H300C311 0 320 9 320 20V162.4C314.8 161 308.4 160 300 160C260.8 160 260 180 260 180zM300 300H240C229 300 220 291 220 280C220 269 229 260 240 260H251.8L176 184.4L109 217.8L109 217.6C106.2 219 103.2 220 100 220S93.8 219 91.2 217.8L91.2 218L11.2 178L11.2 177.8C4.6 174.4 0 167.8 0 160C0 149 9 140 20 140C23.2 140 26.2 141 28.8 142.2L28.8 142L100 177.6L171 142L171 142.2C173.8 141 176.8 140 180 140C185.6 140 190.6 142.2 194.2 145.8L280 231.8V220C280 209 289 200 300 200S320 209 320 220V280C320 291 311 300 300 300z" />
    <glyph glyph-name="chat"
      unicode="&#xF148;"
      horiz-adv-x="320" d="M120 120C98 120 80 138 80 160V260H20C9 260 0 251 0 240V80C0 69 9 60 20 60V20C20 9 29 0 40 0C45.6 0 50.6 2.2 54.2 5.8L108.2 60H200C211 60 220 69 220 80V103.4L203.4 120H120zM300 320H120C109 320 100 311 100 300V160C100 149 109 140 120 140H211.8L266 85.8C269.4000000000001 82.2 274.4000000000001 80 280 80C291 80 300 89 300 100V140C311 140 320 149 320 160V300C320 311 311 320 300 320z" />
    <glyph glyph-name="chevron-backward"
      unicode="&#xF149;"
      horiz-adv-x="320" d="M148.2 160L214 225.8C217.8 229.4 220 234.4 220 240C220 251 211 260 200 260C194.4 260 189.4 257.8 185.8 254.2L120 188.2V240C120 251 111 260 100 260S80 251 80 240V80C80 69 89 60 100 60S120 69 120 80V131.8L185.8 66C189.4 62.2 194.4 60 200 60C211 60 220 69 220 80C220 85.6 217.8 90.6 214.2 94.2L148.2 160z" />
    <glyph glyph-name="chevron-down"
      unicode="&#xF14A;"
      horiz-adv-x="320" d="M240 220C234.4 220 229.4 217.8 225.8 214.2L160 148.2L94.2 214.2C90.6 217.8 85.6 220 80 220C69 220 60 211 60 200C60 194.4 62.2 189.4 65.8 185.8L145.8 105.8C149.4 102.2 154.4 100 160 100S170.6 102.2 174.2 105.8L254.2 185.8C257.8 189.4 260 194.4 260 200C260 211 251 220 240 220z" />
    <glyph glyph-name="chevron-forward"
      unicode="&#xF14B;"
      horiz-adv-x="320" d="M200 260C189 260 180 251 180 240V188.2L114.2 254.2C110.6 257.8 105.6 260 100 260C89 260 80 251 80 240C80 234.4 82.2 229.4 85.8 225.8L151.8 160L86 94.2C82.2 90.6 80 85.6 80 80C80 69 89 60 100 60C105.6 60 110.6 62.2 114.2 65.8L180 131.8V80C180 69 189 60 200 60S220 69 220 80V240C220 251 211 260 200 260z" />
    <glyph glyph-name="chevron-left"
      unicode="&#xF14C;"
      horiz-adv-x="320" d="M148.2 160L214 225.8C217.8 229.4 220 234.4 220 240C220 251 211 260 200 260C194.4 260 189.4 257.8 185.8 254.2L105.8 174.2C102.2 170.6 100 165.6 100 160C100 154.4 102.2 149.4 105.8 145.8L185.8 65.8C189.4 62.2 194.4 60 200 60C211 60 220 69 220 80C220 85.6 217.8 90.6 214.2 94.2L148.2 160z" />
    <glyph glyph-name="chevron-right"
      unicode="&#xF14D;"
      horiz-adv-x="320" d="M214.2 174.2L134.2 254.2C130.6 257.8 125.6 260 120 260C109 260 100 251 100 240C100 234.4 102.2 229.4 105.8 225.8L171.8 160L106 94.2C102.2 90.6 100 85.6 100 80C100 69 109 60 120 60C125.6 60 130.6 62.2 134.2 65.8L214.2 145.8C217.8 149.4 220 154.4 220 160C220 165.6 217.8 170.6 214.2 174.2z" />
    <glyph glyph-name="chevron-up"
      unicode="&#xF14E;"
      horiz-adv-x="320" d="M254.2 134.2L174.2 214.2C170.6 217.8 165.6 220 160 220S149.4 217.8 145.8 214.2L65.8 134.2C62.2 130.6 60 125.6 60 120C60 109 69 100 80 100C85.6 100 90.6 102.2 94.2 105.8L160 171.8L225.8 106C229.4 102.2 234.4 100 240 100C251 100 260 109 260 120C260 125.6 257.8 130.6 254.2 134.2z" />
    <glyph glyph-name="circle-arrow-down"
      unicode="&#xF14F;"
      horiz-adv-x="320" d="M220 180C214.4 180 209.4 177.8 205.8 174.2L180 148.2V220C180 231 171 240 160 240S140 231 140 220V148.2L114.2 174.2C110.6 177.8 105.6 180 100 180C89 180 80 171 80 160C80 154.4 82.2 149.4 85.8 145.8L145.8 85.8C149.4 82.2 154.4 80 160 80S170.6 82.2 174.2 85.8L234.2 145.8C237.8 149.4 240 154.4 240 160C240 171 231 180 220 180zM160 320C71.6 320 0 248.4 0 160S71.6 0 160 0S320 71.6 320 160S248.4 320 160 320zM160 40C93.8 40 40 93.8 40 160S93.8 280 160 280S280 226.2 280 160S226.2 40 160 40z" />
    <glyph glyph-name="circle-arrow-left"
      unicode="&#xF150;"
      horiz-adv-x="320" d="M220 180H148.2L174 205.8C177.8 209.4 180 214.4 180 220C180 231 171 240 160 240C154.4 240 149.4 237.8 145.8 234.2L85.8 174.2C82.2 170.6 80 165.6 80 160C80 154.4 82.2 149.4 85.8 145.8L145.8 85.8C149.4 82.2 154.4 80 160 80C171 80 180 89 180 100C180 105.6 177.8 110.6 174.2 114.2L148.2 140H220C231 140 240 149 240 160C240 171 231 180 220 180zM160 320C71.6 320 0 248.4 0 160S71.6 0 160 0S320 71.6 320 160S248.4 320 160 320zM160 40C93.8 40 40 93.8 40 160S93.8 280 160 280S280 226.2 280 160S226.2 40 160 40z" />
    <glyph glyph-name="circle-arrow-right"
      unicode="&#xF151;"
      horiz-adv-x="320" d="M174.2 234.2C170.6 237.8 165.6 240 160 240C149 240 140 231 140 220C140 214.4 142.2 209.4 145.8 205.8L171.8 180H100C89 180 80 171 80 160C80 149 89 140 100 140H171.8L146 114.2C142.2 110.6 140 105.6 140 100C140 89 149 80 160 80C165.6 80 170.6 82.2 174.2 85.8L234.2 145.8C237.8 149.4 240 154.4 240 160C240 165.6 237.8 170.6 234.2 174.2L174.2 234.2zM160 320C71.6 320 0 248.4 0 160S71.6 0 160 0S320 71.6 320 160S248.4 320 160 320zM160 40C93.8 40 40 93.8 40 160S93.8 280 160 280S280 226.2 280 160S226.2 40 160 40z" />
    <glyph glyph-name="circle-arrow-up"
      unicode="&#xF152;"
      horiz-adv-x="320" d="M174.2 234.2C170.6 237.8 165.6 240 160 240S149.4 237.8 145.8 234.2L85.8 174.2C82.2 170.6 80 165.6 80 160C80 149 89 140 100 140C105.6 140 110.6 142.2 114.2 145.8L140 171.8V100C140 89 149 80 160 80S180 89 180 100V171.8L205.8 146C209.4 142.2 214.4 140 220 140C231 140 240 149 240 160C240 165.6 237.8 170.6 234.2 174.2L174.2 234.2zM160 320C71.6 320 0 248.4 0 160S71.6 0 160 0S320 71.6 320 160S248.4 320 160 320zM160 40C93.8 40 40 93.8 40 160S93.8 280 160 280S280 226.2 280 160S226.2 40 160 40z" />
    <glyph glyph-name="circle"
      unicode="&#xF153;"
      horiz-adv-x="320" d="M160 320C72 320 0 248 0 160S72 0 160 0S320 72 320 160S248 320 160 320L160 320zM160 40C94 40 40 94 40 160S94 280 160 280S280 226 280 160S226 40 160 40L160 40z" />
    <glyph glyph-name="citation"
      unicode="&#xF154;"
      horiz-adv-x="320" d="M300.4 220C300.4 253.2 273.6 280 240.4 280S180.4 253.2 180.4 220S207.2 160 240.4 160C244.6 160 248.6 160.4 252.4 161.2C242 124.8 222.8 100 200.4 100C189.4 100 180.4 91 180.4 80C180.4 69 189.4 60 200.4 60C255.6 60 300.4 122.6 300.4 200C300.4 204 300 207.8 299.6 211.6C299.8 214.4 300.4 217.2 300.4 220zM80.4 280C47.2 280 20.4 253.2 20.4 220S47.2 160 80.4 160C84.6 160 88.6 160.4 92.4 161.2C82 124.8 62.8 100 40.4 100C29.4 100 20.4 91 20.4 80C20.4 69 29.4 60 40.4 60C95.6 60 140.4 122.6 140.4 200C140.4 204 140 207.8 139.6 211.6C139.8 214.4 140.4 217.2 140.4 220C140.4 253.2 113.4 280 80.4 280z" />
    <glyph glyph-name="clean"
      unicode="&#xF155;"
      horiz-adv-x="320" d="M240 160L216 104.07387L160 80.08233L216 56.137188L240 0L264 56.137188L320 80L264 104.07387zM100 320L70 250L0 220.102913L70 190L100 120L130 190L200 220L130 250z" />
    <glyph glyph-name="clip"
      unicode="&#xF156;"
      horiz-adv-x="320" d="M0 300C0 311.0457 8.9543 320 20 320H100C111.0456 320 120 311.0457 120 300C120 288.9544 111.0456 280 100 280H40V220C40 208.9544 31.0456 200 20 200C8.9543 200 0 208.9544 0 220V300zM20 0C8.9543 0 0 8.954 0 20V100C0 111.046 8.9543 120 20 120C31.0456 120 40 111.046 40 100V40H100C111.0456 40 120 31.046 120 20C120 8.954 111.0456 0 100 0H20zM300 0C311.046 0 320 8.954 320 20V100C320 111.046 311.046 120 300 120C288.954 120 280 111.046 280 100V40H220C208.954 40 200 31.046 200 20C200 8.954 208.954 0 220 0H300zM300 320C311.046 320 320 311.0457 320 300V220C320 208.9544 311.046 200 300 200C288.954 200 280 208.9544 280 220V280H220C208.954 280 200 288.9544 200 300C200 311.0457 208.954 320 220 320H300zM160 100C193.137 100 220 126.863 220 160C220 193.137 193.137 220 160 220C126.863 220 100 193.137 100 160C100 126.863 126.863 100 160 100z" />
    <glyph glyph-name="clipboard-file"
      unicode="&#xF35B;"
      horiz-adv-x="320" d="M231.716 200C237.02 200 242.108 197.8928 245.858 194.1422L274.142 165.8578C277.892 162.1072 280 157.02 280 151.7158V20C280 8.954 271.046 0 260 0H140C128.9544 0 120 8.954 120 20V180C120 191.0456 128.9544 200 140 200H231.716zM160 140C154.4772 140 150 135.5228 150 130C150 124.4772 154.4772 120 160 120H240C245.522 120 250 124.4772 250 130C250 135.5228 245.522 140 240 140H160zM160 100C154.4772 100 150 95.522 150 90C150 84.478 154.4772 80 160 80H240C245.522 80 250 84.478 250 90C250 95.522 245.522 100 240 100H160zM160 60C154.4772 60 150 55.522 150 50C150 44.478 154.4772 40 160 40H240C245.522 40 250 44.478 250 50C250 55.522 245.522 60 240 60H160zM161.8178 301.81818C171.8178 301.81818 179.9996 293.6364 179.9996 283.6364V270H99.9996V283.6364C99.9996 293.6364 108.1814 301.81818 118.1814 301.81818H114.1814C120.3632 312.72728 126.5464 320 140.001 320C153.4556 320 159.6358 312.72728 165.8178 301.81818H161.8178zM200 279.9956H221.818C231.818 279.9956 240 271.8138 240 261.8138V220H120C108.9544 220 100 211.0456 100 200V39.996H58.1818C48.1818 39.996 40 48.178 40 58.178V261.8138C40 271.8138 48.1818 279.9956 58.1818 279.9956H80V249.9956H200V279.9956z" />
    <glyph glyph-name="clipboard"
      unicode="&#xF157;"
      horiz-adv-x="320" d="M220 280C220 291 211 300 200 300H204.4C197.6 312 184.8 320 170 320S142.4 312 135.6 300H140C129 300 120 291 120 280V260H220V280zM260 280H240V240H100V280H80C69 280 60 271 60 260V20C60 9 69 0 80 0H260C271 0 280 9 280 20V260C280 271 271 280 260 280z" />
    <glyph glyph-name="cloud-download"
      unicode="&#xF158;"
      horiz-adv-x="320" d="M220 100C214.4 100 209.4 97.8 205.8 94.2L180 68.2V160C180 171 171 180 160 180S140 171 140 160V68.2L114.2 94C110.6 97.8 105.6 100 100 100C89 100 80 91 80 80C80 74.4 82.2 69.4 85.8 65.8L145.8 5.8C149.4 2.2 154.4 0 160 0S170.6 2.2 174.2 5.8L234.2 65.8C237.8 69.4 240 74.4 240 80C240 91 231 100 220 100zM240 240C239.4 240 238.6 240 238 239.8C228.8 285.6 188.4 320 140 320C84.8 320 40 275.2 40 220C40 217.8 40.2 215.6 40.4 213.4C16.6 202.2 0 178 0 150C0 121.8 16.8 97.8 40.6 86.6C44 116.6 69.2 140 100 140C101.2 140 102.6 139.6 103.8 139.6C101.4 146 100 152.8 100 160C100 193.2 126.8 220 160 220S220 193.2 220 160C220 152.8 218.6 146 216.2 139.6C217.4 139.6 218.8 140 220 140C249.6 140 274 118.6 279 90.6C303.4 104.2 320 130 320 160C320 204.2 284.2000000000001 240 240 240z" />
    <glyph glyph-name="cloud-server"
      unicode="&#xF35A;"
      horiz-adv-x="320" d="M240 240C239.4 240 238.6 240 238 239.8C228.8 285.6 188.4 320 140 320C84.8 320 40 275.2 40 220C40 217.8 40.2 215.6 40.4 213.4C16.6 202.2 0 178 0 150C0 111.4 31.4 80 70 80H120V140C120 151.0458 128.9544 160 140 160H300C308.7320000000001 160 316.156 154.4042 318.884 146.6028C319.618 150.9588 320 155.4346 320 160C320 204.2 284.2000000000001 240 240 240zM140 140H300V80H140V140zM200 110C200 115.522 204.478 120 210 120H270C275.522 120 280 115.522 280 110C280 104.478 275.522 100 270 100H210C204.478 100 200 104.478 200 110zM180 110C180 104.478 175.5228 100 170 100C164.4772 100 160 104.478 160 110C160 115.522 164.4772 120 170 120C175.5228 120 180 115.522 180 110zM140 0V60H300V0H140zM200 30C200 35.522 204.478 40 210 40H270C275.522 40 280 35.522 280 30C280 24.478 275.522 20 270 20H210C204.478 20 200 24.478 200 30zM170 20C175.5228 20 180 24.478 180 30C180 35.522 175.5228 40 170 40C164.4772 40 160 35.522 160 30C160 24.478 164.4772 20 170 20z" />
    <glyph glyph-name="cloud-tick"
      unicode="&#xF34E;"
      horiz-adv-x="320" d="M238 239.8C238.6 240 239.4 240 240 240C278.294 240 310.282 213.128 318.148 177.2026C297.476 183.7416 273.964 178.8164 257.574 162.4264L200 104.852L182.4264 122.4264C158.995 145.8578 121.005 145.8578 97.5736 122.4264C85.8578 110.71 80 95.356 80 80H70C31.4 80 0 111.4 0 150C0 178 16.6 202.2 40.4 213.4C40.2 215.6 40 217.8 40 220C40 275.2 84.8 320 140 320C188.4 320 228.8 285.6 238 239.8zM315.294 132.8896C321.932 125.0316 321.548 113.264 314.142 105.858L214.142 5.858C206.332 -1.952 193.6684 -1.952 185.8578 5.858L125.8578 65.858C118.6986 73.018 118.1018 84.254 124.067 92.092C124.6096 92.806 125.2066 93.49 125.8578 94.142C133.6684 101.952 146.3316 101.952 154.1422 94.142L200 48.284L285.852 134.1356C293.662 141.946 306.332 141.9526 314.142 134.1422C314.548 133.7372 314.93 133.3192 315.294 132.8896z" />
    <glyph glyph-name="cloud-upload"
      unicode="&#xF159;"
      horiz-adv-x="320" d="M174.2 174.2C170.6 177.8 165.6 180 160 180S149.4 177.8 145.8 174.2L85.8 114.2C82.2 110.6 80 105.6 80 100C80 89 89 80 100 80C105.6 80 110.6 82.2 114.2 85.8L140 111.8V20C140 9 149 0 160 0S180 9 180 20V111.8L205.8 86C209.4 82.2 214.4 80 220 80C231 80 240 89 240 100C240 105.6 237.8 110.6 234.2 114.2L174.2 174.2zM240 240C239.4 240 238.6 240 238 239.8C228.8 285.6 188.4 320 140 320C84.8 320 40 275.2 40 220C40 217.8 40.2 215.6 40.4 213.4C16.6 202.2 0 178 0 150C0 121.4 17.2 96.8 41.8 86C40.8 90.6 40 95.2 40 100C40 116.6 46.8 131.6 57.6 142.4L117.6 202.4C128.4 213.2 143.4 220 160 220S191.6 213.2 202.4 202.4L262.4000000000001 142.4C273.2 131.6 280 116.6 280 100C280 96.8 279.6 93.6 279 90.6C303.4 104.4 320 130 320 160C320 204.2 284.2000000000001 240 240 240z" />
    <glyph glyph-name="cloud"
      unicode="&#xF15A;"
      horiz-adv-x="320" d="M240 200C239.4 200 238.6 200 238 199.8C228.8 245.6 188.4 280 140 280C84.8 280 40 235.2 40 180C40 177.8 40.2 175.6 40.4 173.4C16.6 162.2 0 138 0 110C0 71.4 31.4 40 70 40H240C284.2000000000001 40 320 75.8 320 120C320 164.2 284.2000000000001 200 240 200z" />
    <glyph glyph-name="code-block"
      unicode="&#xF15B;"
      horiz-adv-x="320" d="M300 260H260V280C260 291 251 300 240 300H200C189 300 180 291 180 280V260H140V280C140 291 131 300 120 300H80C69 300 60 291 60 280V260H20C9 260 0 251 0 240V40C0 29 9 20 20 20H300C311 20 320 29 320 40V240C320 251 311 260 300 260zM134.2 94.2C137.8 90.6 140 85.6 140 80C140 69 131 60 120 60C114.4 60 109.4 62.2 105.8 65.8L45.8 125.8C42.2 129.4 40 134.4 40 140S42.2 150.6 45.8 154.2L105.8 214.2C109.4 217.8 114.4 220 120 220C131 220 140 211 140 200C140 194.4 137.8 189.4 134.2 185.8L88.2 140L134.2 94.2zM274.2000000000001 125.8L214.2 65.8C210.6 62.2 205.6 60 200 60C189 60 180 69 180 80C180 85.6 182.2 90.6 185.8 94.2L231.8 140L185.8 185.8C182.2 189.4 180 194.4 180 200C180 211 189 220 200 220C205.6 220 210.6 217.8 214.2 214.2L274.2000000000001 154.2C277.8 150.6 280 145.6 280 140S277.8 129.4 274.2000000000001 125.8z" />
    <glyph glyph-name="code"
      unicode="&#xF15C;"
      horiz-adv-x="320" d="M314.2000000000001 174.2L254.2 234.2C250.6 237.8 245.6 240 240 240C229 240 220 231 220 220C220 214.4 222.2 209.4 225.8 205.8L271.8 160L226 114.2C222.2 110.6 220 105.6 220 100C220 89 229 80 240 80C245.6 80 250.6 82.2 254.2 85.8L314.2000000000001 145.8C317.8 149.4 320 154.4 320 160C320 165.6 317.8 170.6 314.2000000000001 174.2zM100 220C100 231 91 240 80 240C74.4 240 69.4 237.8 65.8 234.2L5.8 174.2C2.2 170.6 0 165.6 0 160C0 154.4 2.2 149.4 5.8 145.8L65.8 85.8C69.4 82.2 74.4 80 80 80C91 80 100 89 100 100C100 105.6 97.8 110.6 94.2 114.2L48.2 160L94 205.8C97.8 209.4 100 214.4 100 220zM180 280C170.4 280 162.6 273 160.8 263.8L120.8 63.8C120.6 62.6 120 61.4 120 60C120 49 129 40 140 40C149.6 40 157.4 47 159.2 56.2L199.2 256.2C199.4 257.4 200 258.6 200 260C200 271 191 280 180 280z" />
    <glyph glyph-name="cog"
      unicode="&#xF15D;"
      horiz-adv-x="320" d="M303.8 192.2H266.8C264.6 199.6 261.4 206.4 257.8 213L285 240.2C291.2 246.4000000000001 291.2 256.6 285 262.8L262.4000000000001 285.4C256.2 291.6 246 291.6 239.8000000000001 285.4L212.6000000000001 258.2C206 261.6 199.2 264.8 191.8 267V304.2C191.8 313 184.6 320.2 175.8 320.2H143.8C135 320.2 127.8 313 127.8 304.2V267C120 264.6 112.8 261.4 105.8 257.6L79.8 283.6C73.8 289.6 64 289.6 58 283.6L36.4 261.8C30.4 255.8 30.4 246 36.4 240L62.4 214C58.4 207.2 55.2 200 52.8 192.2H15.8C7 192.2 -0.2 185 -0.2 176.2V144.2C-0.2 135.4 7 128.2 15.8 128.2H52.8C55 120.8 58.2 114 61.8 107.4L34.6 80.2000000000001C28.4 74 28.4 63.8 34.6 57.6L57.2 35.0000000000001C63.4 28.8000000000001 73.6 28.8000000000001 79.8 35.0000000000001L107 62.2000000000001C113.6 58.6000000000001 120.4 55.6000000000001 127.8 53.4000000000001V16.2000000000001C127.8 7.4000000000001 135 0.2 143.8 0.2H175.8C184.6 0.2 191.8000000000001 7.4 191.8000000000001 16.2000000000001V53.4000000000001C199.6000000000001 55.8000000000001 206.8000000000001 59.0000000000001 213.8 62.8000000000001L239.8000000000001 36.8000000000001C245.8000000000001 30.8000000000001 255.6 30.8000000000001 261.6 36.8000000000001L283.4000000000001 58.6000000000001C289.4000000000001 64.6000000000001 289.4000000000001 74.4 283.4000000000001 80.4000000000001L257.4000000000001 106.4000000000001C261.2 113.4000000000001 264.6 120.6000000000001 267 128.4000000000001H304C312.8 128.4000000000001 320 135.6000000000001 320 144.4000000000001V176.4000000000001C319.8 185 312.6 192.2 303.8 192.2zM159.8 100.2C126.6 100.2 99.8 127 99.8 160.2S126.6 220.2 159.8 220.2S219.8 193.4 219.8 160.2S193 100.2 159.8 100.2z" />
    <glyph glyph-name="collapse-all"
      unicode="&#xF15E;"
      horiz-adv-x="320" d="M145.8 185.8C149.4 182.2 154.4 180 160 180S170.6 182.2 174.2 185.8L254.2 265.8C257.8 269.4 260 274.4 260 280C260 291 251 300 240 300C234.4 300 229.4 297.8 225.8 294.2L160 228.2L94.2 294.2C90.6 297.8 85.6 300 80 300C69 300 60 291 60 280C60 274.4 62.2 269.4 65.8 265.8L145.8 185.8zM174.2 134.2C170.6 137.8 165.6 140 160 140S149.4 137.8 145.8 134.2L65.8 54.2C62.2 50.6 60 45.6 60 40C60 29 69 20 80 20C85.6 20 90.6 22.2 94.2 25.8L160 91.8L225.8 26C229.4 22.2 234.4 20 240 20C251 20 260 29 260 40C260 45.6 257.8 50.6 254.2 54.2L174.2 134.2z" />
    <glyph glyph-name="color-fill"
      unicode="&#xF328;"
      horiz-adv-x="320" d="M61.8638 180C62.2002 180.9846 62.5838 181.9852 63.0158 182.9932C65.1466 187.9652 67.5152 190.9466 68.2842 191.7158L140 263.4314L223.432 180L61.8638 180zM130 60C150 60 179.9998 80 189.9998 90L251.716 151.7158L280 180L251.716 208.2842L168.2842 291.7158L140 320L111.7158 291.7158L40 220C30 210 20 190 20 170C20 150 30 130 40 120L80 80C90 70 110 60 130 60zM270 140L292.5 106.666C297.266 99.606 300 93.334 300 86.666C300 73.334 292.5 60 270 60C247.5 60 240 73.334 240 86.666C240 93.334 242.734 99.606 247.5 106.666L270 140zM0 20C0 31.046 8.9543 40 20 40H300C311.046 40 320 31.046 320 20C320 8.954 311.046 0 300 0H20C8.9543 0 0 8.954 0 20z" />
    <glyph glyph-name="column-layout"
      unicode="&#xF15F;"
      horiz-adv-x="320" d="M300 300H20C9 300 0 291 0 280V40C0 29 9 20 20 20H300C311 20 320 29 320 40V280C320 291 311 300 300 300zM80 60H40V260H80V60zM140 60H100V260H140V60zM280 60H160V260H280V60z" />
    <glyph glyph-name="comment"
      unicode="&#xF160;"
      horiz-adv-x="320" d="M280 300H20C9 300 0 291 0 280V100C0 89 9 80 20 80H60V20C60 9 69 0 80 0C85.6 0 90.6 2.2 94.2 5.8L168.2 80H280C291 80 300 89 300 100V280C300 291 291 300 280 300zM70 160C53.4 160 40 173.4 40 190S53.4 220 70 220S100 206.6 100 190S86.6 160 70 160zM150 160C133.4 160 120 173.4 120 190S133.4 220 150 220S180 206.6 180 190S166.6 160 150 160zM230 160C213.4 160 200 173.4 200 190S213.4 220 230 220S260 206.6 260 190S246.6 160 230 160z" />
    <glyph glyph-name="comparison"
      unicode="&#xF161;"
      horiz-adv-x="320" d="M159.8 320.2C148.8 320.2 139.8 311.2 139.8 300.2V20.2C139.8 9.2 148.8 0.2 159.8 0.2S179.8 9.2 179.8 20.2V300.2C179.8 311.2 170.8 320.2 159.8 320.2zM99.8 260.2H19.8C8.8 260.2 -0.2 251.2 -0.2 240.2V200.2C-0.2 189.2 8.8 180.2 19.8 180.2H99.8C110.8 180.2 119.8 189.2 119.8 200.2V240.2C119.8 251.2 110.8 260.2 99.8 260.2zM299.8 260.2H219.8C208.8 260.2 199.8 251.2 199.8 240.2V200.2C199.8 189.2 208.8 180.2 219.8 180.2H299.8C310.8 180.2 319.8 189.2 319.8 200.2V240.2C319.8 251.2 310.8 260.2 299.8 260.2zM299.8 200.2H219.8V240.2H299.8V200.2zM299.8 140.2H219.8C208.8 140.2 199.8 131.2 199.8 120.2V80.2C199.8 69.2 208.8 60.2 219.8 60.2H299.8C310.8 60.2 319.8 69.2 319.8 80.2V120.2C319.8 131.2 310.8 140.2 299.8 140.2zM299.8 80.2H219.8V120.2H299.8V80.2zM99.8 140.2H19.8C8.8 140.2 -0.2 131.2 -0.2 120.2V80.2C-0.2 69.2 8.8 60.2 19.8 60.2H99.8C110.8 60.2 119.8 69.2 119.8 80.2V120.2C119.8 131.2 110.8 140.2 99.8 140.2z" />
    <glyph glyph-name="compass"
      unicode="&#xF162;"
      horiz-adv-x="320" d="M240 160C240 157.2 239.4 154.6 238.4 152.2L238.4 152.2L178.4 12.4C178.4 12.4 178.4 12.4 178.4 12.4L178.4 12.4L178.4 12.4C175.4 5 168.2 0 160 0S144.6 5 141.6 12.2L141.6 12.2L141.6 12.2C141.6 12.2 141.6 12.2 141.6 12.2L81.6 152L81.6 152C80.6 154.6 80 157.2 80 160S80.6 165.4 81.6 167.8L81.6 167.8L141.6 307.6C141.6 307.6 141.6 307.6 141.6 307.6L141.6 307.6L141.6 307.6C144.6 315 151.8 320 160 320S175.4 315 178.4 307.8L178.4 307.8L178.4 307.8C178.4 307.8 178.4 307.8 178.4 307.8L238.4 168L238.4 168C239.4 165.4 240 162.8 240 160zM160 249.2L121.8 160H198.2L160 249.2z" />
    <glyph glyph-name="compressed"
      unicode="&#xF163;"
      horiz-adv-x="320" d="M318.6 207.4L318.6 207.4L318.6 207.8C318.6 207.8 318.6 207.8 318.6 207.8L278.8 307.4L278.8 307.4C275.6 314.8 268.4 320 260 320H60C51.6 320 44.4 314.8 41.4 307.4L41.4 307.4L1.6 207.8C1.6 207.8 1.6 207.8 1.6 207.8L1.4 207.4L1.4 207.4C0.6 205.2 0 202.6 0 200V20C0 9 9 0 20 0H300C311 0 320 9 320 20V200C320 202.6 319.4000000000001 205.2 318.6 207.4zM180 280H246.4L270.4 220H180V280zM73.6 280H140V220H49.6L73.6 280zM280 40H40V180H140V128.2L114.2 154.2C110.6 157.8 105.6 160 100 160C89 160 80 151 80 140C80 134.4 82.2 129.4 85.8 125.8L145.8 65.8C149.4 62.2 154.4 60 160 60S170.6 62.2 174.2 65.8L234.2 125.8C237.8 129.4 240 134.4 240 140C240 151 231 160 220 160C214.4 160 209.4 157.8 205.8 154.2L180 128.2V180H280V40z" />
    <glyph glyph-name="confirm"
      unicode="&#xF164;"
      horiz-adv-x="320" d="M174 234.2C170.4 238 165.4 240.2 159.8 240.2C148.8 240.2 139.8 231.2 139.8 220.2C139.8 214.6 142 209.6 145.6 206L185.6 166C189.2 162.4 194.2 160.2 199.8000000000001 160.2S210.4 162.4 214.0000000000001 166L314.0000000000001 266C317.6 269.6 319.8000000000001 274.6 319.8000000000001 280.2C319.8000000000001 291.2 310.8000000000001 300.2 299.8000000000001 300.2C294.2000000000001 300.2 289.2000000000001 298 285.6 294.4L199.8 208.4L174 234.2zM278.4 174C279 169.4 279.8 165 279.8 160.2C279.8 94 226 40.2 159.8 40.2S39.8 94 39.8 160.2S93.6 280.2 159.8 280.2C176 280.2 191.6 276.8 205.8 271L235.8 301C213.2 313.2 187.4 320.2 159.8 320.2C71.4 320.2 -0.2 248.6 -0.2 160.2S71.4 0.2 159.8 0.2S319.8 71.8 319.8 160.2C319.8 176.8 317.2 193 312.6 208L278.4 174z" />
    <glyph glyph-name="console"
      unicode="&#xF165;"
      horiz-adv-x="320" d="M300 20H20C9 20 0 29 0 40V280C0 291 9 300 20 300H300C311 300 320 291 320 280V40C320 29 311 20 300 20zM280 220H40V60H280V220zM80 200C85.6 200 90.6 197.8 94.2 194.2L94.2 194.2L134.2 154.2L134.2 154.2C137.8 150.6 140 145.6 140 140S137.8 129.4 134.2 125.8L134.2 125.8L94.2 85.8L94.2 85.8C90.6 82.2 85.6 80 80 80C69 80 60 89 60 100C60 105.6 62.2 110.6 65.8 114.2L65.8 114.2L91.8 140L65.8 165.8L65.8 165.8C62.2 169.4 60 174.4 60 180C60 191 69 200 80 200zM180 120H240C251 120 260 111 260 100S251 80 240 80H180C169 80 160 89 160 100S169 120 180 120z" />
    <glyph glyph-name="contrast"
      unicode="&#xF166;"
      horiz-adv-x="320" d="M304 192H275.2C272.6 201.4 268.8 210.4 264 218.8L285.2 240C291.4 246.2 291.4 256.4 285.2 262.6L262.6 285.2C256.4 291.4 246.2 291.4 240 285.2L218.8 264C210.4 268.8 201.6 272.4 192 275.2V304C192 312.8 184.8 320 176 320H144C135.2 320 128 312.8 128 304V275.2C118 272.4 108.8 268.4 100 263.4L80 283.4C74 289.4 64.2 289.4 58.2 283.4L36.6 261.8C30.6 255.8 30.6 246 36.6 240L56.6 220C51.6 211.2 47.6 202 44.8 192H16C7.2 192 0 184.8 0 176V144C0 135.2 7.2 128 16 128H44.8C47.4 118.6 51.2 109.6 56 101.2L34.8 80C28.6 73.8 28.6 63.6 34.8 57.4L57.4 34.8000000000001C63.6 28.6 73.8 28.6 80 34.8000000000001L101.2 56.0000000000001C109.6 51.2 118.4 47.6 128 44.8000000000001V16.0000000000001C128 7.2 135.2 1e-13 144 1e-13H176C184.8 1e-13 192 7.2 192 16.0000000000001V44.8000000000001C202 47.6 211.2000000000001 51.4 220 56.6L240.0000000000001 36.6C246.0000000000001 30.6 255.8000000000001 30.6 261.8 36.6L283.6 58.4C289.6 64.4 289.6 74.2 283.6 80.2000000000001L263.6 100.2000000000001C268.6 108.8 272.6 118.2000000000001 275.4000000000001 128.2000000000001H304.2000000000001C313 128.2000000000001 320.2000000000001 135.4 320.2000000000001 144.2000000000001V176C320 184.8 312.8 192 304 192zM160 80C115.8 80 80 115.8 80 160C80 204.2 115.8 240 160 240V80z" />
    <glyph glyph-name="control"
      unicode="&#xF167;"
      horiz-adv-x="320" d="M260 160H160V60H260V160zM260 260H160V180H260V260zM300 320H20C9 320 0 311 0 300V20C0 9 9 0 20 0H300C311 0 320 9 320 20V300C320 311 311 320 300 320zM280 40H40V280H280V40zM140 260H60V60H140V260z" />
    <glyph glyph-name="credit-card"
      unicode="&#xF168;"
      horiz-adv-x="320" d="M299.8 261H19.8C8.8 261 -0.2 252 -0.2 241V221H319.8V241C319.8 252 310.8 261 299.8 261zM-0.2 61C-0.2 50 8.8 41 19.8 41H299.8C310.8 41 319.8 50 319.8 61V181H-0.2C-0.2 181 -0.2 61 -0.2 61zM109.8 101H209.8C215.4 101 219.8 96.6 219.8 91S215.4 81 209.8 81H109.8C104.2 81 99.8 85.4 99.8 91S104.4 101 109.8 101zM49.8 101H69.8C75.4 101 79.8 96.6 79.8 91S75.4 81 69.8 81H49.8C44.2 81 39.8 85.4 39.8 91S44.4 101 49.8 101z" />
    </font>
</defs>
</svg>
